<?xml version="1.0" standalone="no"?>
<!DOCTYPE svg PUBLIC "-//W3C//DTD SVG 1.1//EN" "http://www.w3.org/Graphics/SVG/1.1/DTD/svg11.dtd" >
<svg xmlns="http://www.w3.org/2000/svg">
<metadata>Generated by IcoMoon</metadata>
<defs>
<font id="icomoon" horiz-adv-x="1024">
<font-face units-per-em="1024" ascent="960" descent="-64" />
<missing-glyph horiz-adv-x="1024" />
<glyph unicode="&#x20;" horiz-adv-x="512" d="" />
<glyph unicode="&#xe111;" glyph-name="commercial-large" d="M512.031 959.988c-282.325 0-512.031-229.675-512.031-511.992 0-282.31 229.706-511.984 512.031-511.984 282.294 0 511.969 229.675 511.969 511.984 0 282.317-229.675 511.992-511.969 511.992zM512.031-39.031c-268.557 0-487.043 218.486-487.043 487.027s218.487 487.021 487.043 487.021c268.525 0 486.98-218.479 486.98-487.021s-218.454-487.027-486.98-487.027zM793.381 505.706h-183.003v200.524c0 6.9-5.602 12.479-12.494 12.479h-335.008c-6.892 0-12.494-5.578-12.494-12.479v-484.242c0-6.893 5.602-12.494 12.494-12.494h335.007c0.063 0 0.126 0.047 0.189 0.047s0.125-0.047 0.188-0.047h195.119c6.893 0 12.494 5.602 12.494 12.494v271.232c0.002 6.892-5.6 12.486-12.492 12.486zM585.39 234.467h-310.020v459.277h310.020v-459.277zM780.888 234.467h-170.132v246.26h170.132v-246.26zM346.589 561.087h52.903c6.923 0 12.494 5.586 12.494 12.486v52.454c0 6.892-5.57 12.478-12.494 12.478h-52.903c-6.892 0-12.462-5.586-12.462-12.478v-52.454c-0.001-6.9 5.57-12.486 12.462-12.486zM359.083 613.541h27.946v-27.482h-27.946v27.482zM346.589 456.163h52.903c6.923 0 12.494 5.594 12.494 12.494v52.454c0 6.899-5.57 12.485-12.494 12.485h-52.903c-6.892 0-12.462-5.586-12.462-12.485v-52.454c-0.001-6.9 5.57-12.494 12.462-12.494zM359.083 508.625h27.946v-27.481h-27.946v27.481zM346.589 351.239h52.903c6.923 0 12.494 5.602 12.494 12.494v52.462c0 6.892-5.57 12.478-12.494 12.478h-52.903c-6.892 0-12.462-5.586-12.462-12.478v-52.462c-0.001-6.892 5.57-12.494 12.462-12.494zM359.083 403.701h27.946v-27.475h-27.946v27.475zM461.237 561.087h52.902c6.924 0 12.494 5.586 12.494 12.486v52.454c0 6.892-5.57 12.478-12.494 12.478h-52.902c-6.892 0-12.462-5.586-12.462-12.478v-52.454c0-6.9 5.571-12.486 12.462-12.486zM473.731 613.541h27.946v-27.482h-27.946v27.482zM461.237 456.163h52.902c6.924 0 12.494 5.594 12.494 12.494v52.454c0 6.899-5.57 12.485-12.494 12.485h-52.902c-6.892 0-12.462-5.586-12.462-12.485v-52.454c0-6.9 5.571-12.494 12.462-12.494zM473.731 508.625h27.946v-27.481h-27.946v27.481zM461.237 351.239h52.902c6.924 0 12.494 5.602 12.494 12.494v52.462c0 6.892-5.57 12.478-12.494 12.478h-52.902c-6.892 0-12.462-5.586-12.462-12.478v-52.462c0-6.892 5.571-12.494 12.462-12.494zM473.731 403.701h27.946v-27.475h-27.946v27.475zM669.354 351.554h52.902c6.924 0 12.494 5.602 12.494 12.494v52.462c0 6.893-5.57 12.479-12.494 12.479h-52.902c-6.893 0-12.463-5.586-12.463-12.479v-52.462c0.001-6.893 5.571-12.494 12.463-12.494zM681.849 404.016h27.946v-27.489h-27.946v27.489z" />
<glyph unicode="&#xe222;" glyph-name="home-large" d="M512.016 959.996c-282.326 0-512.016-229.674-512.016-511.992 0-282.325 229.69-512 512.016-512 282.31 0 511.984 229.675 511.984 512 0 282.318-229.675 511.992-511.984 511.992zM512.016-39.008c-268.557 0-487.028 218.471-487.028 487.012s218.471 487.020 487.028 487.020c268.541 0 486.997-218.479 486.997-487.020s-218.456-487.012-486.997-487.012zM724.082 571.488v0c-10.228 1.424-18.048 6.153-19.921 12.093-1.699 5.366 2.203 10.055 4.658 12.353 8.276 7.694 23.918 6.097 37.198-3.792 5.523-4.138 13.344-2.99 17.467 2.534 4.122 5.539 2.989 13.359-2.55 17.482-8.292 6.192-17.246 10.188-26.12 12.164l-0.095 6.876c-0.095 6.892-5.649 12.462-12.651 12.321-6.893-0.095-12.399-5.759-12.305-12.651l0.078-6.932c-6.656-1.817-12.855-4.925-18.017-9.716-11.393-10.637-15.688-24.909-11.487-38.19 4.941-15.531 20.016-26.483 40.346-29.284 0 0 0 0 0.016 0 0 0 0-0.008 0.016-0.008 10.213-1.393 18.033-6.129 19.921-12.069 1.685-5.342-2.234-10.023-4.72-12.337-8.277-7.687-23.887-6.089-37.104 3.777-5.539 4.13-13.375 2.989-17.482-2.542-4.122-5.539-2.989-13.344 2.533-17.481 8.293-6.177 17.215-10.095 26.074-12.069l0.078-6.986c0.095-6.837 5.665-12.321 12.494-12.321 0.063 0 0.11 0 0.157 0 6.908 0.095 12.432 5.743 12.337 12.651l-0.095 6.955c6.672 1.817 12.856 4.941 18.002 9.732 11.424 10.613 15.735 24.886 11.518 38.167-4.909 15.552-19.999 26.495-40.346 29.273zM722.635 708.308c-39.386 0-75.168-15.437-101.902-40.432l-113.201 78c-4.265 2.935-9.897 2.951-14.162 0.008l-0.314-0.212c-0.44-0.236-0.929-0.291-1.354-0.582l-240.375-165.624c-0.126-0.086-0.173-0.236-0.283-0.323l-61.525-42.422c-5.665-3.918-7.097-11.691-3.179-17.372 2.423-3.517 6.326-5.397 10.291-5.397 2.439 0 4.909 0.716 7.081 2.203l42.218 29.119 0.299-320.429c0.016-6.907 5.602-12.478 12.494-12.478l482.166 0.456c3.305 0 6.483 1.321 8.812 3.666 2.36 2.345 3.666 5.523 3.65 8.828l-0.189 187.251c67.804 14.13 118.928 74.342 118.928 146.292 0 82.407-67.049 149.448-149.455 149.448zM462.496 239.902l0.63 99.433 77.765-0.504-0.661-99.432-77.734 0.503zM728.362 237.778l-163.16-0.157 0.739 113.531c0.031 6.893-5.508 12.51-12.415 12.572l-102.721 0.661c-0.016 0-0.047 0-0.079 0-3.273 0-6.436-1.29-8.78-3.588-2.36-2.328-3.682-5.507-3.713-8.812l-0.724-114.476-166.308-0.157-0.315 325.126 64.358 44.382 165.175 113.562 103.429-71.25c-19.149-25.122-30.668-56.356-30.668-90.313 0-82.406 67.049-149.455 149.455-149.455 1.873 0 3.698 0.204 5.555 0.283l0.172-171.909zM722.635 434.377c-68.638 0-124.468 55.846-124.468 124.483s55.83 124.467 124.468 124.467 124.468-55.829 124.468-124.467c0-68.637-55.831-124.483-124.468-124.483z" />
<glyph unicode="&#xe333;" glyph-name="reloadable-large" d="M512.016 960.008c-282.327 0-512.016-229.683-512.016-512 0-282.334 229.689-512.016 512.016-512.016 282.302 0 511.984 229.682 511.984 512.016 0 282.317-229.683 512-511.984 512zM512.016-39.035c-268.557 0-487.043 218.492-487.043 487.043 0 268.541 218.486 487.027 487.043 487.027 268.549 0 487.027-218.486 487.027-487.027 0-268.551-218.479-487.043-487.027-487.043zM305.458 503.264h-25.917c-20.725 0-37.562-16.837-37.562-37.553 0-20.725 16.837-37.578 37.562-37.578h25.917c20.739 0 37.577 16.854 37.577 37.578 0.001 20.716-16.837 37.553-37.577 37.553zM305.458 453.106h-25.917c-6.939 0-12.604 5.656-12.604 12.604 0 6.932 5.665 12.588 12.604 12.588h25.917c6.955 0 12.62-5.656 12.62-12.588 0.001-6.947-5.664-12.604-12.62-12.604zM763.633 483.854v129.020c0 34.548-28.104 62.652-62.66 62.652h-464.077c-34.541 0-62.645-28.104-62.645-62.652v-258.369c0-34.557 28.104-62.66 62.645-62.66h353.484c19.402-60.034 75.752-103.606 142.158-103.606 82.424 0 149.46 67.051 149.46 149.46 0.001 71.74-50.842 131.804-118.365 146.155zM738.676 593.69v-21.015h-539.468v21.015h539.468zM236.896 650.552h464.076c18.789 0 34.289-13.863 37.105-31.881h-538.278c2.809 18.018 18.301 31.881 37.097 31.881zM236.896 316.802c-20.788 0-37.688 16.916-37.688 37.703v193.198h539.467v-60.859c-2.046 0.079-4.060 0.307-6.137 0.307-82.394 0-149.429-67.059-149.429-149.453 0-7.113 0.661-14.037 1.637-20.896h-347.85zM732.539 213.227c-68.641 0-124.472 55.833-124.472 124.472s55.831 124.479 124.472 124.479c68.64 0 124.503-55.84 124.503-124.479s-55.863-124.472-124.503-124.472zM800.015 352.601h-54.981v54.997c0 6.893-5.57 12.479-12.494 12.479-6.893 0-12.463-5.586-12.463-12.479v-54.997h-55.014c-6.892 0-12.462-5.586-12.462-12.479 0-6.908 5.57-12.494 12.462-12.494h55.014v-54.982c0-6.922 5.57-12.494 12.463-12.494 6.924 0 12.494 5.572 12.494 12.494v54.982h54.981c6.923 0 12.494 5.586 12.494 12.494 0 6.893-5.571 12.479-12.494 12.479z" />
<glyph unicode="&#xe600;" glyph-name="angledown" d="M512 177.998l-450 540.004h900z" />
<glyph unicode="&#xe601;" glyph-name="angleleft" d="M241.998 448l540.004 450v-900z" />
<glyph unicode="&#xe602;" glyph-name="angleright" d="M782.002 448l-540.004-450v900z" />
<glyph unicode="&#xe603;" glyph-name="angleup" d="M512 718.002l450-540.004h-900z" />
<glyph unicode="&#xe604;" glyph-name="atm" d="M799.333 858c-18.906 0-34.275-15.325-34.275-34.255v-60.437h-540.393c-18.908 0-34.275-15.325-34.275-34.254v-562.128c0-18.931 15.367-34.256 34.275-34.256h540.393v-60.415c0-18.93 15.369-34.255 34.275-34.255 18.91 0 34.277 15.325 34.277 34.255v751.49c0 18.93-15.367 34.255-34.277 34.255zM758.323 694.799v-110.082h-499.381v110.082h499.381zM258.942 201.18v315.028h499.381v-315.028h-499.381z" />
<glyph unicode="&#xe605;" glyph-name="auto-large" d="M838.679 238.132c-0.426 2.565-1.649 4.957-3.491 6.782l-237.197 237.197c68.204 110.584-7.437 186.247-55.472 234.293-74.965 74.949-126.879 105.539-179.212 105.539-44.817 0-89.285-23.604-139.969-74.304-123.195-123.21-89.93-198.049 31.219-319.183 39.701-39.701 87.208-82.046 148.75-82.046 35.068 0 70.329 13.551 106.885 41.204l237.49-237.491c2.125-2.14 4.957-3.43 7.947-3.619l36.885-2.596c0.299-0.017 0.601-0.032 0.881-0.032 3.305 0 6.482 1.307 8.823 3.666l39.595 39.591c2.846 2.863 4.151 6.895 3.491 10.873l-6.625 40.126zM403.308 371.382c-52.008 0-94.934 38.569-131.094 74.729-116.256 116.256-138.444 176.618-31.221 283.872 45.697 45.697 84.564 66.971 122.314 66.971 44.988 0 91.785-28.449 161.559-98.207 56.082-56.095 132.887-132.917 6.592-259.229-45.853-45.838-87.772-68.136-128.15-68.136zM788.594 169.227l-26.561 1.856-232.436 232.421c6.459 5.689 12.962 11.803 19.518 18.36 13.542 13.544 24.976 26.648 34.531 39.322l231.054-231.095 4.926-29.835-31.032-31.029zM364.157 756.682c-8.655 8.671-22.754 9.615-30.512 1.904l-124.879-124.91c-3.557-3.522-5.508-8.338-5.508-13.562 0-6.105 2.676-12.274 7.35-16.947l19.779-19.78c4.674-4.687 10.857-7.361 16.947-7.361 5.209 0 10.023 1.936 13.564 5.477l124.895 124.905c3.555 3.526 5.508 8.372 5.508 13.596-0.017 6.105-2.707 12.274-7.365 16.9l-19.779 19.778zM246.594 602.509l-16.836 16.868 118.189 118.207 16.838-16.885-118.191-118.19zM512.008 960.008c-282.315 0-512.008-229.678-512.008-512.008s229.693-512.008 512.008-512.008c282.314 0 511.992 229.678 511.992 512.008s-229.677 512.008-511.992 512.008zM512.008-39.020c-268.56 0-487.035 218.475-487.035 487.020s218.474 487.020 487.035 487.020c268.545 0 487.004-218.475 487.004-487.020s-218.459-487.020-487.004-487.020z" />
<glyph unicode="&#xe606;" glyph-name="auto-medium" d="M974.675 72.643l-8.741 52.886c-0.619 3.792-2.415 7.305-5.13 10.019l-311.647 311.665c89.47 146.298-10.656 246.422-74.283 310.057-99.247 99.247-168.119 139.729-237.679 139.729-59.632 0-118.715-31.312-185.94-98.538-80.657-80.666-111.441-147.054-99.805-215.257 11.515-67.435 64.681-132.076 140.977-208.372 52.617-52.606 115.611-108.746 197.516-108.746 46.232 0 92.677 17.677 140.757 53.715l311.979-311.979c3.134-3.133 7.305-5.029 11.715-5.328l48.636-3.433c0.439-0.040 0.858-0.060 1.297-0.060 4.87 0 9.54 1.936 13.013 5.408l52.207 52.247c4.189 4.192 6.105 10.139 5.128 15.987zM218.43 400.856c-154.847 154.847-182.497 230.255-41.171 371.601 59.881 59.871 110.701 87.762 159.936 87.762 58.744 0 120.072-37.36 211.656-128.953 77.473-77.483 173.905-173.906 8.701-339.11-60.072-60.091-114.894-89.288-167.61-89.288-67.845-0.001-124.104 50.57-171.512 97.988zM897.241 36.34l-33.408 2.355-304.528 304.529c8.036 7.136 16.123 14.763 24.271 22.907 17.291 17.293 31.982 34.042 44.37 50.266l302.664-302.683 6.246-37.739-39.615-39.635zM339.679 810.396c-12.113 12.153-32.021 13.371-42.957 2.515l-164.696-164.707c-5.039-5.019-7.812-11.854-7.823-19.259 0-8.571 3.752-17.223 10.258-23.709l26.114-26.123c6.516-6.507 15.157-10.259 23.699-10.259 7.384 0 14.22 2.774 19.229 7.784l164.726 164.745c5.029 5.029 7.793 11.864 7.793 19.269-0.010 8.552-3.762 17.184-10.268 23.659l-26.075 26.085zM183.276 608.439l-19.488 19.498 153.15 153.171 19.498-19.498-153.16-153.171z" />
<glyph unicode="&#xe607;" glyph-name="auto-small" d="M974.15 83.506l-1.349 44.188c-0.209 7.955-3.489 15.549-9.129 21.145l-301.776 301.734c29.156 51.288 37.583 101.263 25.724 151.078-16.244 68.062-67.667 119.463-105.202 156.979-98.974 98.973-168.492 139.37-239.858 139.37-61.607 0-121.866-31.602-189.702-99.437-81.595-81.594-112.606-149.597-100.487-220.418 11.741-68.863 64.634-133.479 140.38-209.225 52.939-52.893 116.439-109.325 200.936-109.325 44.734 0 89.347 15.761 135.047 47.881l300.358-300.322c5.853-5.892 13.808-9.153 22.052-9.153 0.674 0 1.39 0.021 2.068 0.062l41.198 2.693c7.573 0.504 14.683 3.744 20.026 9.088l50.584 50.624c6.102 6.1 9.427 14.434 9.13 23.038zM393.686 322.064c-60.64 0-110.673 44.981-156.751 91.041-58.238 58.262-113.448 119.847-122.958 175.561-8.332 48.812 17.253 99.921 83.065 165.693 55.337 55.356 101.584 81.152 145.518 81.152 52.304 0 110.838-36.211 195.674-121.069 32.271-32.254 76.461-76.417 88.58-127.272 11.939-50.135-8.159-103.531-61.359-162.725l-37.769-37.787c-47.741-42.877-92.728-64.594-134-64.594zM878.577 62.342l-15.316-0.988-286.008 285.967c4.526 4.242 9.067 8.628 13.624 13.183 7.015 7.016 13.655 13.995 19.94 20.944l15.906 15.922 284.001-283.96 0.547-18.308-32.694-32.76zM322.359 752.78l-118.497-118.457c-12.204-12.206-12.204-31.983 0-44.188 6.099-6.099 14.096-9.15 22.090-9.15 7.996 0 15.99 3.052 22.093 9.153l118.499 118.477c12.203 12.204 12.203 31.962 0 44.165-12.204 12.204-31.981 12.204-44.185 0z" />
<glyph unicode="&#xe608;" glyph-name="branch" d="M477.659 607.248v-17.786c-17.764-4.684-34.297-12.8-48.198-25.361-31.017-28.211-43.019-66.48-32.14-102.376 12.713-41.981 52.818-71.94 107.275-80.164 0.043 0 0.064-0.044 0.107-0.044 32.594-4.898 48.35-20.438 51.933-32.247 4.21-13.879-6.173-25.923-12.645-31.836-22.042-19.924-63.095-15.023-97.717 11.461-15.022 11.526-36.521 8.677-48.026-6.368-11.504-15.022-8.654-36.542 6.369-48.025 21.777-16.663 45.305-27.326 68.726-32.979v-18.003c0-18.93 15.323-34.255 34.253-34.255s34.254 15.325 34.254 34.255v17.829c17.744 4.662 34.277 12.777 48.135 25.318 31.059 28.211 43.104 66.523 32.225 102.462-12.712 42.003-52.839 71.962-107.318 80.164-0.021 0-0.021 0-0.043 0-32.635 4.943-48.371 20.463-51.953 32.291-4.209 13.857 6.129 25.88 12.584 31.751 22.080 19.857 63.156 15.088 97.756-11.419 15.002-11.547 36.521-8.676 48.024 6.369 11.505 15.001 8.659 36.521-6.366 48.025-21.737 16.663-45.285 27.541-68.725 33.218v17.722c0 18.929-15.326 34.254-34.256 34.254s-34.254-15.327-34.254-34.256zM885.39 602.391l-353.163 249.344c-11.831 8.332-27.673 8.375-39.501 0l-354.116-249.776c-9.088-6.41-14.506-16.857-14.506-27.995v-501.709c0-18.931 15.326-34.255 34.257-34.255h707.279c18.93 0 34.256 15.324 34.256 34.255v502.141c0 11.137-5.397 21.563-14.506 27.995zM831.385 106.51h-638.771v449.69l319.861 225.602 318.909-225.148v-450.144z" />
<glyph unicode="&#xe609;" glyph-name="business-large" d="M779.359 619.988h-176.33v60.016c0 6.907-5.602 12.494-12.494 12.494h-146.844c-6.893 0-12.494-5.587-12.494-12.494v-60.016h-183.568c-6.89 0-12.494-5.586-12.494-12.493v-164.499c0-3.526 1.479-6.703 3.836-8.976 0.062-0.062 0.126-0.122 0.189-0.184 0.104-0.096 0.206-0.191 0.313-0.284 1.972-1.791 4.512-2.962 7.322-3.201v-180.271c0-6.894 5.601-12.479 12.492-12.479h508.020c6.893 0 12.494 5.586 12.491 12.479v179.979c3.103 0.098 6.062 1.356 8.293 3.56 2.408 2.344 3.763 5.552 3.763 8.906v164.97c0 6.907-5.602 12.493-12.495 12.493zM456.186 667.525h121.855v-47.029h-121.855v47.029zM332.945 595.017h361.098v-139.749h-130.855v14.447c0 6.908-5.604 12.494-12.494 12.494h-79.812c-6.89 0-12.494-5.586-12.494-12.494v-14.447h-125.443v139.749zM538.199 457.237v-33.029h-54.822v33.029h54.822zM260.121 455.459v139.558h47.836v-139.749h-46.365c-0.483 0.088-0.971 0.16-1.471 0.191zM754.812 262.573h-483.031v167.725h36.176v-20.944c0-6.892 5.603-12.478 12.494-12.478 6.893 0 12.494 5.586 12.494 12.478v20.944h125.442v-18.584c0-6.892 5.602-12.478 12.494-12.478h79.812c6.891 0 12.494 5.586 12.494 12.478v18.584h130.855v-20.944c0-6.892 5.602-12.478 12.494-12.478s12.494 5.586 12.494 12.478v20.944h35.781v-167.725zM766.867 455.27c-0.008 0-0.015-0.001-0.022-0.002h-47.813v139.749h47.836v-139.747zM512.016 960c-282.327 0-512.016-229.675-512.016-512s229.689-512 512.016-512c282.308 0 511.984 229.675 511.984 512s-229.676 512-511.984 512zM512.015-39.012c-268.556 0-487.029 218.471-487.029 487.012s218.473 487.013 487.030 487.013c268.541 0 486.995-218.472 486.995-487.013s-218.455-487.012-486.996-487.012z" />
<glyph unicode="&#xe60a;" glyph-name="business-medium" d="M943.682 697.61h-288.274v99.412c0 10.117-8.201 18.319-18.318 18.319h-238.426c-10.119 0-18.32-8.202-18.32-18.319v-99.412h-300.026c-10.117 0-18.318-8.201-18.318-18.319v-267.079c0-5.174 2.172-9.799 5.621-13.133 3.244-3.321 7.715-5.365 12.697-5.468l0.613-294.634c0-10.118 8.201-18.319 18.318-18.319h824.859c10.119 0 18.32 8.201 18.32 18.319v294.174l0.867-0.013c4.65-0.702 9.658 1.776 13.209 5.226 3.502 3.436 5.494 8.162 5.494 13.081v267.846c0.002 10.118-8.199 18.319-18.316 18.319zM416.982 778.704h201.788v-80.992h-201.788v80.992zM216.879 660.973h590.24v-230.8h-216.402v25.409c0 10.117-8.201 18.318-18.318 18.318h-129.587c-10.117 0-18.318-8.201-18.318-18.318v-25.409h-207.615v230.8zM554.080 437.263v-57.524h-92.949v57.524h92.949zM99.25 430.53l-0.613 230.442h81.605v-230.8h-79.229c-0.613 0.064-1.124 0.358-1.763 0.358zM905.791 117.296h-788.221v276.239h62.672v-35.948c0-10.117 8.201-18.318 18.318-18.318s18.318 8.201 18.318 18.318v35.948h207.615v-32.116c0-10.117 8.201-18.318 18.318-18.318h129.586c10.117 0 18.318 8.201 18.318 18.318v32.116h216.402v-35.948c0-10.117 8.203-18.318 18.32-18.318s18.318 8.201 18.318 18.318v35.948h62.033v-276.239zM925.361 430.173h-81.604v230.8h81.604v-230.8z" />
<glyph unicode="&#xe60b;" glyph-name="business-small" d="M929.65 704.131h-264.253v81.574c0 17.884-14.525 32.363-32.386 32.363h-230.646c-17.909 0-32.35-14.478-32.35-32.363v-81.574h-275.673c-17.908 0-32.342-14.459-32.342-32.344v-258.405c0-9.644 4.182-18.31 10.856-24.231 2.212-2.021 4.708-3.735 7.417-5.085v-273.746c0-17.89 14.517-32.389 32.384-32.389h798.069c17.908 0 32.349 14.499 32.349 32.386v272.884c3.427 1.55 6.523 3.67 9.215 6.3 6.201 6.118 9.71 14.439 9.71 23.148v259.138c0 17.885-14.441 32.344-32.35 32.344zM434.708 753.34h165.921v-48.331h-165.921v48.331zM665.232 639.422h232.076v-194.001h-288.439v11.665c0 17.906-14.484 32.365-32.391 32.365h-125.373c-17.869 0-32.352-14.46-32.352-32.365v-11.665h-292.068v194.001h538.547zM544.135 424.7v-26.368h-60.646v26.368h60.646zM145.040 142.681v237.991h273.714v-14.703c0-17.886 14.484-32.365 32.352-32.365h125.373c17.909 0 32.391 14.479 32.391 32.365v14.703h269.514v-237.991h-733.344z" />
<glyph unicode="&#xe60c;" glyph-name="check-mark" d="M458.163 48.66c-0.144-0.218-0.435-0.273-0.646-0.123l-355.487 251.783c-0.213 0.149-0.266 0.448-0.118 0.664l92.224 134.16c0.148 0.216 0.442 0.269 0.655 0.117l219.578-155.362c0.212-0.15 0.503-0.096 0.646 0.123l372.011 567.316c0.143 0.218 0.437 0.277 0.651 0.131l134.286-90.808c0.216-0.146 0.275-0.444 0.133-0.662l-463.933-707.339z" />
<glyph unicode="&#xe60d;" glyph-name="checking-large" d="M512 959.992c-282.31 0-512-229.675-512-511.992s229.69-511.992 512-511.992c282.326 0 512 229.674 512 511.992 0 282.317-229.674 511.992-512 511.992zM512-39.020c-268.541 0-487.012 218.479-487.012 487.020s218.471 487.020 487.012 487.020 487.012-218.479 487.012-487.020-218.471-487.020-487.012-487.020zM805.369 428.335c0 7.308-5.915 13.234-13.231 13.234h-560.136c-7.316 0-13.248-5.924-13.248-13.234 0-7.306 5.932-13.229 13.248-13.229h560.137c7.316-0.001 13.231 5.923 13.23 13.229zM792.139 368.029h-215.119c-7.302 0-13.22-5.922-13.22-13.234 0-7.305 5.918-13.229 13.22-13.229h215.119c7.316 0 13.231 5.925 13.231 13.229 0 7.309-5.915 13.234-13.231 13.234zM227.219 538.581h107.772c7.318 0 13.234 5.924 13.234 13.234 0 7.306-5.916 13.23-13.234 13.23h-107.772c-7.316 0-13.25-5.922-13.25-13.23s5.934-13.234 13.25-13.234zM334.991 502.806c7.318 0 13.234 5.925 13.234 13.234 0 7.307-5.916 13.233-13.234 13.233h-107.772c-7.316 0-13.25-5.925-13.25-13.233 0-7.31 5.934-13.234 13.25-13.234h107.772zM883.324 502.593c0 4.367-2.124 8.224-5.381 10.636l-109.706 109.826c-2.486 2.485-5.856 3.878-9.379 3.878h-604.62c-7.317 0-13.248-5.922-13.248-13.23v-327.95c0-7.307 5.932-13.233 13.248-13.233h715.522c7.318 0 13.25 5.924 13.248 13.232v213.987c0.202 0.92 0.316 1.873 0.316 2.854zM837.846 515.826h-65.738v65.812l65.738-65.812zM167.457 298.984v301.484h578.179v-97.878c0-7.307 5.918-13.23 13.222-13.23h97.687v-190.375h-689.088z" />
<glyph unicode="&#xe60e;" glyph-name="checking-medium" d="M898.979 434.384h-774.223c-9.534 0-17.261-7.733-17.261-17.28s7.727-17.281 17.261-17.281h774.223c9.554 0 17.3 7.736 17.303 17.281-0.001 9.546-7.747 17.28-17.303 17.28zM898.979 332.729h-297.31c-9.535 0-17.285-7.724-17.285-17.28 0-9.533 7.75-17.263 17.285-17.263h297.31c9.554 0 17.3 7.727 17.303 17.263-0.001 9.553-7.747 17.28-17.303 17.28zM118.159 570.496h148.963c9.535 0 17.28 7.736 17.28 17.282s-7.745 17.282-17.28 17.282h-148.963c-9.554 0-17.281-7.738-17.281-17.282 0-9.546 7.726-17.282 17.281-17.282zM267.122 521.043c9.535 0 17.28 7.727 17.28 17.282 0 9.546-7.745 17.282-17.28 17.282h-148.963c-9.554 0-17.281-7.736-17.281-17.282 0-9.556 7.726-17.282 17.281-17.282h148.963zM1024 519.504c0 5.205-2.315 9.874-5.957 13.043l-152.811 152.986c-3.246 3.236-7.643 5.065-12.246 5.065h-835.705c-9.535 0-17.281-7.738-17.281-17.282v-453.3c0-9.535 7.746-17.271 17.281-17.271h989.004c9.535 0 17.281 7.736 17.282 17.271v295.693c0.276 1.223 0.433 2.49 0.433 3.795zM964.591 536.785h-94.3v94.404l94.3-94.404zM34.566 237.307v418.727h801.156v-136.531c0-9.535 7.729-17.282 17.265-17.282h136.018v-264.914h-954.439z" />
<glyph unicode="&#xe60f;" glyph-name="checking-small" d="M929.658 710.075h-835.312c-17.905 0-32.346-14.478-32.346-32.385v-459.421c0-17.863 14.441-32.344 32.346-32.344h835.311c17.905 0 32.343 14.48 32.344 32.345v459.42c0 17.906-14.439 32.385-32.343 32.385zM897.314 250.654h-770.626v394.694h770.626v-394.694zM203.205 439.945h617.635c17.905 0 32.343 14.479 32.344 32.342 0 17.907-14.438 32.386-32.344 32.386h-617.635c-17.863 0-32.383-14.479-32.383-32.386 0-17.863 14.519-32.342 32.383-32.342zM820.84 375.376h-230.040c-17.905 0-32.343-14.477-32.343-32.363 0-17.884 14.438-32.362 32.343-32.362h230.040c17.905 0 32.343 14.479 32.343 32.362s-14.438 32.363-32.343 32.363z" />
<glyph unicode="&#xe610;" glyph-name="close-circle" d="M768.238 187.904c12.427 12.43 12.429 32.572 0 45.001l-215.095 215.096 215.096 215.096c12.427 12.427 12.428 32.571 0 44.999-12.43 12.429-32.572 12.427-45 0.001l-215.096-215.096-215.073 215.095c-12.428 12.428-32.57 12.429-45 0-12.427-12.427-12.427-32.571 0-44.999l215.096-215.096-215.095-215.096c-6.213-6.214-9.309-14.356-9.309-22.5s3.096-16.285 9.308-22.501c12.43-12.427 32.573-12.429 45.001 0l215.071 215.096 215.097-215.097c12.427-12.427 32.57-12.425 44.999 0.001zM1024 447.999c0 282.312-229.691 512.001-512 512-282.311 0.001-512-229.688-512-511.998s229.689-512.001 512-512c282.309 0 512 229.691 512 511.998zM48.761 447.999c0.001 255.432 207.809 463.238 463.239 463.24 255.427-0.001 463.238-207.811 463.238-463.238 0-255.429-207.811-463.239-463.239-463.239s-463.237 207.81-463.238 463.237z" />
<glyph unicode="&#xe611;" glyph-name="close" d="M582.703 448l364.65 364.639c19.525 19.531 19.525 51.17 0 70.702-19.532 19.532-51.173 19.532-70.705 0l-364.648-364.639-364.652 364.639c-19.53 19.532-51.169 19.532-70.701 0s-19.531-51.171 0-70.702l364.648-364.639-364.647-364.637c-19.531-19.535-19.531-51.174 0-70.704 9.765-9.765 22.558-14.647 35.35-14.647s25.585 4.883 35.35 14.647l364.651 364.64 364.649-364.64c9.768-9.765 22.559-14.647 35.353-14.647s25.588 4.883 35.353 14.647c19.525 19.53 19.525 51.169 0 70.704l-364.651 364.637z" />
<glyph unicode="&#xe612;" glyph-name="commercial-medium" d="M928.732 513.357h-287.513v315.039c0 10.841-8.802 19.604-19.628 19.604h-526.322c-10.828 0-19.629-8.763-19.629-19.604v-760.78c0-10.828 8.801-19.616 19.629-19.616h526.322c0.101 0 0.197 0.014 0.298 0.015 0.1-0.001 0.196-0.015 0.297-0.015h306.547c10.828 0 19.628 8.788 19.631 19.616v426.125c-0.001 10.828-8.803 19.616-19.632 19.616zM601.961 87.221h-487.064v721.559h487.064v-721.559zM909.102 87.221h-267.288v386.891h267.287v-386.891zM226.811 600.364h83.115c10.853 0 19.605 8.775 19.604 19.617v82.409c0 10.828-8.752 19.604-19.604 19.604h-83.115c-10.852 0-19.602-8.776-19.602-19.604v-82.409c0-10.843 8.75-19.617 19.602-19.617zM246.417 682.774h43.905v-43.176h-43.905v43.176zM226.811 435.521h83.115c10.853 0 19.605 8.789 19.604 19.628v82.407c0 10.843-8.752 19.616-19.604 19.616h-83.115c-10.852 0-19.602-8.773-19.602-19.616v-82.407c0-10.841 8.75-19.628 19.602-19.628zM246.417 517.945h43.905v-43.179h-43.905v43.179zM226.811 270.69h83.115c10.853 0 19.605 8.777 19.604 19.613v82.41c0 10.84-8.752 19.617-19.604 19.617h-83.115c-10.852 0-19.602-8.777-19.602-19.617v-82.41c0-10.838 8.75-19.613 19.602-19.613zM246.417 353.101h43.905v-43.165h-43.905v43.165zM406.933 600.364h83.114c10.852 0 19.605 8.775 19.605 19.617v82.409c0 10.828-8.751 19.604-19.605 19.604h-83.114c-10.852 0-19.602-8.776-19.602-19.604v-82.409c0-10.843 8.75-19.617 19.602-19.617zM426.537 682.774h43.906v-43.176h-43.906v43.176zM406.933 435.521h83.114c10.852 0 19.605 8.789 19.605 19.628v82.407c0 10.843-8.751 19.616-19.605 19.616h-83.114c-10.852 0-19.602-8.773-19.602-19.616v-82.407c0-10.841 8.75-19.628 19.602-19.628zM426.537 517.945h43.906v-43.179h-43.906v43.179zM406.933 270.69h83.114c10.852 0 19.605 8.777 19.605 19.613v82.41c0 10.84-8.751 19.617-19.605 19.617h-83.114c-10.852 0-19.602-8.777-19.602-19.617v-82.41c0-10.838 8.75-19.613 19.602-19.613zM426.537 353.101h43.906v-43.165h-43.906v43.165zM733.9 271.186h83.115c10.853 0 19.602 8.776 19.602 19.617v82.422c0 10.828-8.75 19.604-19.604 19.604h-83.113c-10.853 0-19.604-8.777-19.604-19.604v-82.422c0-10.841 8.75-19.617 19.604-19.617zM753.506 353.594h43.905v-43.188h-43.905v43.188z" />
<glyph unicode="&#xe613;" glyph-name="commercial-small" d="M987.891 517.968h-226.683v271.078c0 16.003-11.944 28.954-26.652 28.954h-434.131c-14.738 0-26.622-12.952-26.622-28.954v-358.27h-237.694c-14.738 0-26.623-12.972-26.623-28.95v-294.875c0-15.997 11.885-28.951 26.623-28.951h252.87c1.963 0 3.875 0.238 5.718 0.676 1.845-0.438 3.759-0.676 5.728-0.676h434.132c0.078 0 0.154 0.006 0.232 0.007 0.078-0.001 0.154-0.007 0.232-0.007h252.871c14.736 0 26.621 12.954 26.619 28.952v382.044c0.001 16.014-11.884 28.972-26.62 28.972zM262.322 135.906h-199.597v236.945h199.597v-236.945zM707.906 135.906h-380.866v624.19h380.866v-624.19zM961.279 135.906h-199.604v324.155h199.604v-324.155z" />
<glyph unicode="&#xe614;" glyph-name="contact" d="M920.675 228.932c-5.765 45.312-38.376 86.018-94.312 117.737-5.117 2.911-10.217 5.908-15.273 8.862-31.943 18.812-68.175 40.134-112.216 40.134-43.129 0-82.052-19.784-118.85-60.445-12.059 3.075-43.882 18.774-92.249 67.893l-20.979 20.876c-49.239 48.794-64.938 80.476-68.054 92.533 101.979 92.289 51.021 178.952 20.392 230.984-2.953 5.018-5.928 10.115-8.841 15.215-44.708 78.773-96.438 95.279-131.939 95.279-34.735 0-67.325-15.414-96.841-45.882-133.296-137.522-96.538-337.109 98.378-533.866l0.465-0.445 0.526-0.689 2.59-2.587c0 0 53.265-53.086 56.32-56.161l0.91-0.929 1.092-1.012 0.81-0.729c67.346-66.76 200.762-177.7 343.099-177.7 71.353 0 135.277 26.906 190.021 79.948 43.474 42.121 48.452 83.59 44.951 110.984zM835.467 159.499c-47.379-45.921-98.703-63.641-149.764-63.641-122.369 0-243.021 101.957-303.105 161.638l-1.578 1.455c-0.605 0.646-56.725 56.562-56.725 56.562-0.566 0.73-1.173 1.296-1.78 1.982l-1.538 1.456c-84.479 85.29-253.967 291.92-97.913 452.91 19.441 20.069 38.012 28.322 55.289 28.322 33.157 0 61.459-30.468 81.627-65.99 33.258-58.627 75.175-109.402-3.521-177.863-50.413-43.818 29.334-133.518 69.551-173.372l20.554-20.433c30.709-31.193 91.178-85.813 137.361-85.813 13.615 0 25.994 4.772 36.010 16.304 28.807 33.1 54.479 44.79 78.937 44.79 33.662 0 64.979-22.173 98.966-41.474 53.892-30.544 96.215-80.106 37.629-136.833z" />
<glyph unicode="&#xe615;" glyph-name="credit-large" d="M512.016 960.016c-282.335 0-512.016-229.682-512.016-512.016s229.681-512.016 512.016-512.016c282.302 0 511.984 229.683 511.984 512.016s-229.682 512.016-511.984 512.016zM512.016-39.027c-268.564 0-487.058 218.478-487.058 487.027s218.493 487.027 487.058 487.027c268.549 0 487.027-218.477 487.027-487.027 0-268.548-218.479-487.027-487.027-487.027zM810.054 693.575h-596.156c-42.425 0-76.933-34.508-76.933-76.917v-331.935c0-42.423 34.508-76.933 76.933-76.933h596.156c42.425 0 76.948 34.51 76.948 76.931v331.937c0 42.409-34.523 76.917-76.948 76.917zM213.898 668.602h596.156c27.351 0 49.812-21.236 51.801-48.073h-699.773c1.99 26.837 24.465 48.073 51.816 48.073zM862.014 284.722c0-28.639-23.306-51.959-51.96-51.959h-596.156c-28.655 0-51.976 23.32-51.976 51.959v251.762h700.092v-251.762zM862.014 561.456h-700.092v34.098h700.092v-34.098zM412.077 385.827h385.892c6.894 0 12.495 5.587 12.495 12.476v53.977c0 6.907-5.599 12.494-12.495 12.494h-385.892c-6.908 0-12.479-5.587-12.479-12.494v-53.975c0-6.891 5.571-12.478 12.479-12.478zM424.555 439.802h360.919v-29.002h-360.919v29.002zM268.674 382.885h33.313c24.659 0 44.706 20.048 44.706 44.725 0 24.641-20.047 44.688-44.706 44.688h-33.313c-24.656 0-44.721-20.045-44.721-44.688 0-24.677 20.065-44.725 44.721-44.725zM268.674 447.323h33.313c10.875 0 19.75-8.861 19.75-19.717 0-10.893-8.875-19.749-19.75-19.749h-33.313c-10.888 0-19.732 8.856-19.732 19.749 0 10.859 8.843 19.717 19.732 19.717z" />
<glyph unicode="&#xe616;" glyph-name="credit-medium" d="M918.969 779.622h-813.914c-57.918 0-105.055-47.113-105.055-105.034v-453.154c0-57.922 47.137-105.057 105.055-105.057h813.914c57.918 0 105.031 47.135 105.031 105.056v453.155c0 57.921-47.113 105.034-105.031 105.034zM989.93 645.8v-46.564h-955.813v46.564h955.813zM105.055 745.528l813.914-0.001c37.334 0 68.014-28.992 70.741-65.632h-955.374c2.726 36.641 33.385 65.633 70.719 65.633zM918.969 150.485h-813.914c-39.122 0-70.938 31.825-70.938 70.948v343.697h955.813v-343.696c0-39.123-31.84-70.949-70.961-70.949zM902.469 467.25h-526.848c-9.411 0-17.059-7.627-17.059-17.048v-73.688c0-9.422 7.649-17.049 17.059-17.049h526.848c9.43 0 17.035 7.627 17.035 17.049v73.688c0 9.421-7.606 17.048-17.035 17.048zM885.43 393.561h-492.75v39.597h492.75v-39.597zM225.324 477.52h-45.484c-33.664 0-61.035-27.382-61.035-61.034 0-33.664 27.371-61.048 61.035-61.048h45.484c33.641 0 61.035 27.381 61.035 61.048 0 33.652-27.394 61.034-61.035 61.034zM225.324 389.524h-45.484c-14.844 0-26.961 12.105-26.961 26.961 0 14.843 12.117 26.938 26.961 26.938h45.484c14.844 0 26.938-12.093 26.938-26.938 0-14.857-12.094-26.961-26.938-26.961z" />
<glyph unicode="&#xe617;" glyph-name="credit-small" d="M929.656 777.913h-835.312c-17.904 0-32.344-14.48-32.344-32.384v-595.079c0-17.886 14.44-32.363 32.344-32.363h835.312c17.905 0 32.345 14.478 32.346 32.363v595.079c-0.001 17.904-14.445 32.384-32.346 32.384zM897.312 713.185v-114.937h-770.623v114.937h770.623zM126.689 182.793v331.924h770.624v-331.924h-770.624z" />
<glyph unicode="&#xe618;" glyph-name="down-expansion" d="M512.145 166.46c-13.536 0-26.497 5.402-36.079 14.985l-461.113 460.983c-19.938 19.903-19.938 52.22 0 72.158 19.872 19.938 52.22 19.938 72.158 0l425.033-424.908 424.744 424.908c19.938 19.938 52.224 19.903 72.158 0.031 19.938-19.938 19.938-52.251 0-72.189l-460.791-460.983c-9.583-9.583-22.57-14.985-36.11-14.985z" />
<glyph unicode="&#xe619;" glyph-name="email" d="M926.326 745.393h-828.652c-19.714 0-35.674-16.004-35.674-35.696v-523.395c0-19.691 15.96-35.695 35.674-35.695h828.652c19.714 0 35.674 16.004 35.674 35.695v523.395c0 19.692-15.96 35.696-35.674 35.696zM831.174 674.002l-333.088-234.59-333.471 234.59h666.559zM133.348 221.998v386.723l344.237-242.094c6.159-4.316 13.33-6.52 20.523-6.52s14.386 2.203 20.545 6.52l371.999 261.965v-406.594h-757.304z" />
<glyph unicode="&#xe61a;" glyph-name="exclamation-soft" d="M512 959.98c-282.301 0-512-229.68-512-511.98s229.699-511.98 512-511.98c282.302 0 512 229.682 512 511.98 0 282.3-229.698 511.98-512 511.98zM512-1.869c-248.057 0-449.849 201.814-449.849 449.869s201.792 449.868 449.849 449.868c248.054 0 449.849-201.813 449.849-449.868s-201.795-449.869-449.849-449.869zM520.609 320.725c-49.939 0-90.487-40.548-90.487-90.408 0-50.058 40.547-90.604 90.487-90.604 50.057 0 90.524 40.547 90.524 90.604 0.002 49.86-40.467 90.408-90.524 90.408zM455.68 429.214c2.897-31.623 29.979-57.533 62.896-57.533 32.991 0 60.076 25.91 62.893 57.533l25.44 244.063v0.156c0 0.313 0.078 0.626 0.078 0.783 0 46.026-39.566 83.286-88.411 83.286-48.806 0-88.414-37.259-88.414-83.208 0-0.234 0.078-0.509 0.078-0.782l-0.078-0.353 25.518-243.945z" />
<glyph unicode="&#xe61b;" glyph-name="exclamation2" d="M517.025 269.816c-66.286 0-120.104-53.818-120.104-120.002 0-66.44 53.818-120.259 120.104-120.259 66.446 0 120.159 53.818 120.159 120.259 0.001 66.184-53.712 120.002-120.159 120.002zM430.845 413.813c3.844-41.97 39.794-76.361 83.483-76.361 43.789 0 79.736 34.392 83.48 76.361l33.767 323.95v0.207c0 0.417 0.102 0.832 0.102 1.039 0 61.091-52.521 110.546-117.349 110.546-64.779 0-117.352-49.455-117.352-110.444 0-0.31 0.102-0.673 0.102-1.039l-0.102-0.466 33.869-323.793z" />
<glyph unicode="&#xe61c;" glyph-name="facebook" d="M912.39 897.975h-800.684c-27.445 0-49.706-22.192-49.706-49.73v-800.585c0-27.442 22.261-49.634 49.706-49.634h431.056v348.461h-117.285v135.791h117.285v100.146c0 116.309 70.896 179.638 174.607 179.638 49.609 0 92.381-3.759 104.781-5.517v-121.363l-71.871-0.098c-56.449 0-67.284-26.659-67.284-66.040v-86.766h134.473l-17.479-135.791h-116.994v-348.462h229.395c27.345 0 49.61 22.189 49.61 49.634v800.586c0 27.538-22.268 49.73-49.61 49.73z" />
<glyph unicode="&#xe61d;" glyph-name="follow" d="M877.104 445.272c-0.002 17.576-14.244 31.82-31.82 31.82h-304.192v304.192c0 17.574-14.244 31.819-31.819 31.819-17.577-0.001-31.82-14.245-31.82-31.819v-304.191l-304.175 0.016c-17.575 0-31.818-14.242-31.82-31.819 0-17.575 14.245-31.819 31.82-31.819h304.191v-304.191c0-8.787 3.569-16.733 9.328-22.492s13.705-9.326 22.492-9.328c17.576 0.002 31.82 14.244 31.82 31.82l-0.018 304.174h304.191c17.577-0.002 31.82 14.242 31.822 31.818zM874.039 810.038c-199.624 199.624-524.455 199.623-724.078 0-199.624-199.623-199.624-524.453 0-724.076 199.622-199.623 524.454-199.624 724.078 0 199.622 199.622 199.621 524.455 0 724.076zM184.441 120.44c-180.616 180.617-180.616 474.502 0 655.119 180.615 180.614 474.502 180.615 655.118 0s180.615-474.504 0-655.119-474.503-180.614-655.118 0z" />
<glyph unicode="&#xe61e;" glyph-name="home-medium" d="M804.086 583.766c-0.115 0.018-0.226 0.049-0.342 0.065-15.246 2.11-26.91 9.158-29.699 18.011-2.527 7.989 3.284 14.967 6.934 18.387 4.99 4.638 11.778 7.009 19.402 7.21 0.309-0.015 0.613-0.046 0.926-0.046 0.094 0 0.164 0 0.234 0.004 0.254 0.003 0.499 0.035 0.75 0.048 10.752-0.217 22.957-4.589 34.056-12.861 8.226-6.161 19.863-4.451 26 3.771 6.14 8.245 4.449 19.886-3.797 26.021-12.351 9.211-25.671 15.287-38.877 18.224l-0.144 10.117c-0.141 10.259-8.406 18.55-18.828 18.339-10.262-0.141-18.457-8.572-18.316-18.83l0.124-10.042c-9.96-2.694-19.115-7.588-26.823-14.739-16.957-15.833-23.353-37.076-17.099-56.847 7.353-23.116 29.79-39.418 60.052-43.587 0.022-0.003 0.044-0.004 0.066-0.007 15.189-2.087 26.822-9.133 29.633-17.984 2.504-7.937-3.328-14.893-7.027-18.359-4.85-4.5-11.394-6.849-18.742-7.16-0.599 0.028-1.205 0.030-1.82-0.006-0.159-0.002-0.313-0.024-0.472-0.030-10.79 0.157-23.061 4.521-34.192 12.817-8.247 6.162-19.911 4.45-26.023-3.771-6.138-8.246-4.45-19.859 3.772-26.021 12.333-9.203 25.625-15.283 38.802-18.222l0.125-10.142c0.144-10.191 8.43-18.339 18.594-18.339 0.094 0 0.164 0 0.234 0 10.285 0.141 18.504 8.549 18.363 18.831l-0.143 10.053c9.965 2.7 19.107 7.62 26.797 14.771 17.004 15.808 23.422 37.051 17.145 56.818-7.274 23.042-29.579 39.298-59.665 43.506zM1024 565.044c0 122.659-99.798 222.458-222.459 222.458-58.655 0-112.072-22.833-151.859-60.063l-168.312 115.969c-5.949 4.104-13.685 4.361-19.858 0.792-1.28-0.508-2.526-1.151-3.706-1.966l-357.784-246.511c-0.674-0.465-1.309-0.972-1.908-1.512l-90.093-62.123c-8.433-5.832-10.562-17.4-4.73-25.854 3.605-5.223 9.414-8.033 15.316-8.033 3.629 0 7.309 1.077 10.539 3.278l62.85 43.341 0.437-476.946c0.024-10.282 8.34-18.573 18.598-18.573l717.683 0.682c4.918 0 9.649 1.968 13.114 5.457 3.516 3.49 5.457 8.222 5.434 13.14l-0.289 278.679c100.947 21.030 177.027 110.691 177.027 217.785zM414.773 89.946l0.062 148.004 115.75-0.089-0.104-147.981-115.708 0.066zM810.069 87.151l-242.414-0.233 0.112 169.524c-0.014 10.259-8.311 18.593-18.592 18.581l-152.896 0.126c-0.023-0.001-0.070-0.002-0.117-0.002-4.872-0.028-9.567-1.999-13.039-5.439-3.492-3.489-5.432-8.228-5.449-13.146l-0.066-169.828-248.007-0.239-0.465 483.937 93.136 64.227 248.513 170.878 153.744-105.928c-28.494-37.392-45.442-84.034-45.442-134.565 0-122.658 99.798-222.457 222.455-222.457 2.768 0 5.519 0.068 8.262 0.169l0.265-255.605zM801.541 379.78c-102.161 0-185.264 83.1-185.264 185.264s83.103 185.265 185.264 185.265c102.165 0 185.268-83.1 185.268-185.265s-83.103-185.264-185.268-185.264z" />
<glyph unicode="&#xe61f;" glyph-name="home-small" d="M796.426 485.794v117.873l49.512-34.323c5.093-3.543 10.891-5.224 16.648-5.224 9.305 0 18.427 4.393 24.113 12.589 9.226 13.292 5.941 31.568-7.385 40.78l-392.847 272.353c-1.307 0.908-2.663 1.689-4.053 2.357l-0.596 0.413c-4.591 3.176-9.858 4.88-15.184 5.152-6.859 0.862-14.046-0.679-20.189-4.875l-400.527-274.107c-13.368-9.141-16.798-27.378-7.643-40.744 5.685-8.289 14.844-12.737 24.222-12.737 5.685 0 11.446 1.661 16.502 5.113l51.951 35.554v-380.181c0-16.192 13.068-29.296 29.278-29.296h342.021c22.478-113.024 122.403-198.491 241.932-198.491 136.018 0 246.675 110.671 246.675 246.691-0.001 118.096-83.422 217.067-194.43 241.103zM189.505 643.87l275.546 189.039 272.815-188.946v-152.662c-129.652-3.274-234.743-107.090-240.124-236.216h-308.237v388.785zM744.181 56.591c-103.715 0-188.118 84.385-188.118 188.101 0 103.713 84.403 188.098 188.118 188.098 103.712 0 188.114-84.385 188.114-188.098 0-103.716-84.402-188.101-188.114-188.101zM731.628 292.303c2.937 2.648 6.952 4.050 11.573 4.295 0.714-0.052 1.432-0.087 2.159-0.087 0.524 0 1.045 0.015 1.562 0.042 8.316-0.599 18.022-4.464 26.832-11.21 12.849-9.838 31.238-7.401 41.093 5.447 9.856 12.808 7.42 31.234-5.43 41.075-11.034 8.449-22.84 14.608-34.782 18.476v2.163c0 16.192-13.065 29.296-29.275 29.296s-29.277-13.106-29.277-29.296v-2.355c-8.681-3.243-16.741-8.035-23.816-14.429-20.342-18.53-28.171-43.918-20.934-67.896 8.192-27.021 33.203-46.324 67.042-51.865 0.49-0.1 0.986-0.188 1.486-0.263 13.587-2.014 20.014-7.719 21.048-11.060 0.628-2.125-1.809-5.284-4.246-7.515-2.957-2.673-7.021-4.082-11.701-4.309-0.674 0.046-1.353 0.078-2.038 0.078-0.467 0-0.93-0.014-1.392-0.035-8.335 0.557-18.089 4.413-26.925 11.204-12.85 9.858-31.236 7.421-41.061-5.428-9.89-12.83-7.456-31.218 5.393-41.056 11-8.451 22.787-14.603 34.707-18.475v-2.22c0-16.192 13.067-29.298 29.277-29.298s29.278 13.105 29.278 29.298v2.377c8.67 3.245 16.716 8.049 23.782 14.445 20.418 18.498 28.28 43.918 20.97 67.917-8.208 27.209-33.51 46.57-67.677 51.915-0.235 0.041-0.468 0.089-0.705 0.125-13.66 2.064-20.123 7.791-21.116 11.146-0.664 2.126 1.773 5.321 4.173 7.498z" />
<glyph unicode="&#xe620;" glyph-name="instagram" d="M735.147 960h-439.787c-163.109 0-295.36-132.251-295.36-295.36v-439.787c0-159.541 129.312-288.853 288.853-288.853h446.084c159.541 0 288.853 129.312 288.853 288.853v446.294c0.21 159.541-129.102 288.853-288.643 288.853zM932.474 220.025c0-106.43-86.278-192.499-192.499-192.499h-455.951c-106.43 0-192.499 86.278-192.499 192.499v455.951c0 106.43 86.278 192.499 192.499 192.499h455.741c106.43 0 192.499-86.278 192.499-192.499v-455.951zM848.505 722.158c0-34.664-28.102-62.767-62.767-62.767s-62.767 28.102-62.767 62.767c0 34.664 28.102 62.767 62.767 62.767s62.767-28.102 62.767-62.767zM512.63 712.502c-146.106 0-264.712-118.606-264.712-264.712s118.606-264.712 264.712-264.712c146.106 0 264.712 118.606 264.712 264.712s-118.606 264.712-264.712 264.712zM512.63 277.753c-94.675 0-171.296 76.622-171.296 171.296s76.622 171.296 171.296 171.296c94.675 0 171.296-76.622 171.296-171.296 0-94.465-76.622-171.296-171.296-171.296z" />
<glyph unicode="&#xe621;" glyph-name="invest-large" d="M875.629 661.484h-724.285c-6.892 0-12.494-5.587-12.494-12.479v-334.153c-1.042-2.811-1.056-5.922 0-8.74v-70.98c0-6.907 5.601-12.494 12.494-12.494h724.285c6.893 0 12.494 5.587 12.494 12.494v413.873c0 6.892-5.602 12.479-12.494 12.479zM296.219 247.609h-132.383v58.308l132.383 125.657v-183.965zM296.219 465.999l-132.383-125.657v296.169h132.383v-170.512zM503.156 247.609h-181.949v200.485l181.949-16.561v-183.924zM503.156 456.613l-181.949 16.568v163.33h181.949v-179.898zM710.094 247.609h-181.949v189.23l114.725 106.027 67.224-88.568v-206.689zM710.094 495.615l-55.637 73.307c-2.125 2.819-5.336 4.581-8.844 4.896-3.619 0.314-6.986-0.879-9.584-3.273l-107.884-99.705v165.671h181.949v-140.896zM863.137 247.609h-128.057v202.785l74.146 67.216 53.91 53.282v-323.283zM863.137 605.885c-0.391-0.302-0.772-0.622-1.134-0.976l-69.942-69.157-56.981-51.652v152.411h128.057v-30.626zM512.016 960c-282.327 0-512.016-229.675-512.016-512s229.689-512 512.016-512c282.308 0 511.984 229.675 511.984 512s-229.676 512-511.984 512zM512.015-39.012c-268.556 0-487.029 218.471-487.029 487.012s218.473 487.013 487.030 487.013c268.541 0 486.995-218.472 486.995-487.013s-218.455-487.012-486.996-487.012z" />
<glyph unicode="&#xe622;" glyph-name="invest-medium" d="M1006.964 747.559h-988.825c-9.408 0-17.057-7.615-17.057-17.035v-456.164c-1.42-3.833-1.44-8.080 0-11.928v-96.946c0-9.42 7.649-17.045 17.057-17.045h988.825c9.431 0 17.036 7.625 17.036 17.045v565.038c0 9.42-7.605 17.035-17.036 17.035zM989.927 671.684c-0.541-0.419-1.069-0.862-1.568-1.355l-95.489-94.417-77.812-70.507v208.072h174.87v-41.793zM532.562 713.477h248.425v-192.409l-75.984 100.139c-2.901 3.835-7.283 6.263-12.094 6.682-4.727 0.44-9.539-1.201-13.062-4.458l-147.285-136.112v226.158zM498.448 467.873l-248.426 22.614v222.99h248.426v-245.604zM250.022 456.247l248.426-22.616v-251.107h-248.426v273.723zM532.562 440.885l156.651 144.748 91.773-120.937v-282.173h-248.424v258.362zM215.952 713.477v-232.732l-180.756-171.585v404.317h180.756zM35.196 262.123l180.756 171.594v-251.193h-180.756v79.599zM815.057 182.523v276.856l101.25 91.785 73.62 72.764v-441.404h-174.87z" />
<glyph unicode="&#xe623;" glyph-name="invest-small" d="M991.573 857.6h-972.8c-13.653 0-25.6-11.947-25.6-25.6v-785.067c0-13.653 11.947-25.6 25.6-25.6h972.8c13.653 0 25.6 11.947 25.6 25.6v785.067c0 13.653-11.947 25.6-25.6 25.6zM965.973 806.4v-76.8c-1.707-1.707-3.413-3.413-5.12-5.12l-266.24-310.613-305.493 237.227c-5.12 5.12-11.947 6.827-18.773 5.12s-13.653-5.12-17.067-10.24l-307.2-421.547v581.973h919.893zM44.373 72.533v68.267c3.413 1.707 6.827 3.413 8.533 6.827l324.267 445.44 305.493-235.52c10.24-8.533 27.307-6.827 35.84 3.413l249.173 290.133v-580.267h-923.307z" />
<glyph unicode="&#xe624;" glyph-name="left-progress" d="M230.46 447.855c0 13.534 5.402 26.495 14.985 36.077l460.983 461.115c19.903 19.938 52.221 19.938 72.158 0 19.938-19.872 19.938-52.22 0-72.158l-424.908-425.034 424.908-424.743c19.938-19.938 19.902-52.226 0.031-72.158-19.938-19.938-52.251-19.938-72.189 0l-460.983 460.791c-9.583 9.583-14.985 22.569-14.985 36.11z" />
<glyph unicode="&#xe625;" glyph-name="linkedin" d="M895.423 898.013h-767.039c-36.622 0-66.384-29.054-66.384-64.895v-770.188c0-35.839 29.762-64.943 66.384-64.943h767.039c36.694 0 66.577 29.104 66.577 64.943v770.188c0 35.841-29.883 64.895-66.577 64.895zM328.976 131.097h-133.623v429.506h133.623v-429.506zM262.201 619.293c-42.873 0-77.444 34.67-77.444 77.396s34.571 77.418 77.444 77.418c42.701 0 77.37-34.691 77.37-77.418s-34.669-77.396-77.37-77.396zM828.939 131.097h-133.474v208.87c0 49.806-0.854 113.893-69.362 113.893-69.459 0-80.055-54.299-80.055-110.331v-212.432h-133.329v429.506h127.957v-58.718h1.832c17.797 33.764 61.354 69.359 126.297 69.359 135.16 0 160.135-88.918 160.135-204.594v-235.553z" />
<glyph unicode="&#xe626;" glyph-name="menu" d="M48.555 774.605h926.914c26.81 0 48.531 21.745 48.531 48.554s-21.721 48.555-48.531 48.555h-926.914c-26.81 0-48.555-21.746-48.555-48.555s21.745-48.554 48.555-48.554zM975.469 496.545h-926.914c-26.81 0-48.555-21.746-48.555-48.555s21.745-48.535 48.555-48.535h926.914c26.81 0 48.533 21.726 48.531 48.535 0 26.809-21.721 48.555-48.531 48.555zM975.469 121.35h-926.914c-26.81 0-48.555-21.722-48.555-48.531s21.745-48.533 48.555-48.533h926.914c26.81 0 48.531 21.724 48.531 48.533 0 26.806-21.721 48.531-48.531 48.531z" />
<glyph unicode="&#xe627;" glyph-name="more" d="M113.227 561.231c-62.539 0-113.227-50.693-113.227-113.25 0-62.52 50.688-113.216 113.227-113.216s113.234 50.694 113.234 113.216c0 62.557-50.695 113.25-113.234 113.25zM512 561.23c-62.539 0-113.234-50.692-113.234-113.25 0-62.521 50.695-113.215 113.234-113.215 62.534 0 113.227 50.694 113.227 113.216 0 62.557-50.696 113.249-113.227 113.249zM910.765 561.231c-62.538 0-113.231-50.693-113.231-113.25 0-62.521 50.693-113.216 113.232-113.216s113.234 50.695 113.234 113.216c0 62.557-50.696 113.25-113.235 113.25z" />
<glyph unicode="&#xe628;" glyph-name="mortgage-large" d="M512.016 960c-282.327 0-512.016-229.675-512.016-512s229.689-512 512.016-512c282.308 0 511.984 229.675 511.984 512s-229.676 512-511.984 512zM512.015-39.012c-268.556 0-487.027 218.471-487.027 487.012s218.471 487.013 487.028 487.013c268.541 0 486.995-218.472 486.995-487.013s-218.455-487.012-486.996-487.012zM817.205 517.362l-125.822 86.55 0.598 152.628c0 3.321-1.306 6.499-3.651 8.843-2.344 2.361-5.521 3.683-8.826 3.683l-269.128 0.188c-2.6 0.116-5.18-0.583-7.372-2.023-0.078-0.051-0.154-0.105-0.231-0.158-0.227-0.156-0.448-0.32-0.665-0.492-0.091-0.072-0.183-0.143-0.272-0.218-0.28-0.235-0.555-0.48-0.816-0.743l-129.54-129.17c-0.050-0.050-0.092-0.105-0.141-0.155-0.208-0.214-0.408-0.433-0.598-0.659-0.080-0.095-0.154-0.192-0.231-0.289-0.165-0.208-0.322-0.419-0.472-0.635-0.063-0.092-0.127-0.182-0.188-0.275-0.187-0.286-0.364-0.577-0.526-0.875-0.013-0.023-0.028-0.046-0.041-0.069-0.172-0.322-0.327-0.652-0.469-0.986-0.044-0.104-0.083-0.208-0.125-0.313-0.093-0.235-0.18-0.473-0.258-0.713-0.042-0.126-0.083-0.253-0.121-0.381-0.073-0.252-0.137-0.507-0.195-0.764-0.038-0.168-0.073-0.336-0.104-0.506-0.046-0.256-0.088-0.513-0.119-0.771-0.021-0.179-0.034-0.359-0.048-0.539-0.013-0.17-0.022-0.34-0.028-0.511-0.004-0.125-0.020-0.247-0.020-0.372l-0.99-434.298c0-3.336 1.304-6.515 3.65-8.844 2.328-2.363 5.506-3.682 8.826-3.682l398.914-0.521c6.877 0 12.479 5.57 12.492 12.447l0.295 119.82 70.768-0.31c0.016 0 0.031 0 0.047 0 3.289 0 6.453 1.306 8.797 3.616 2.344 2.331 3.682 5.494 3.697 8.812l0.834 191.304 27.916-19.203c2.168-1.495 4.625-2.203 7.064-2.203 3.98 0 7.883 1.889 10.307 5.413 3.903 5.683 2.472 13.456-3.208 17.374zM397.271 726.613l-0.188-86.797-86.656 0.188 86.844 86.609zM665.734 205.284l-373.922 0.484 0.944 409.312 116.758-0.284c0.016 0 0.016 0 0.033 0 3.303 0 6.467 1.322 8.811 3.65 2.346 2.331 3.666 5.507 3.682 8.812l0.256 117.022 244.684-0.184-0.305-123.188-43.314 29.795c-0.209 0.144-0.424 0.272-0.639 0.401l-0.998 0.698c-4.264 2.974-9.881 3.008-14.178 0.098l-182.199-123.769-74.177-0.069c-6.893 0-12.479-5.603-12.479-12.494 0.015-6.893 5.601-12.494 12.494-12.494 0 0 0 0 0.016 0l100.279 0.126-0.169-38.176-99.687-0.313c-6.891 0-12.461-5.599-12.461-12.493 0.013-6.893 5.599-12.463 12.492-12.463 0 0 0.018 0 0.031 0l99.515 0.298-0.169-38.443-98.903-0.409c-6.893-0.015-12.479-5.617-12.463-12.525 0.033-6.877 5.619-12.444 12.494-12.444 0.016 0 0.016 0 0.031-0.006l98.73 0.399-0.223-50.526c-0.019-3.32 1.291-6.499 3.616-8.843 2.349-2.344 5.511-3.68 8.828-3.698l202.861-0.887-0.269-107.387zM594.529 339.184l0.065 52.090 38.617-0.056-0.049-52.069-38.633 0.035zM749.372 337.285l-91.229 0.398 0.067 66.005c0.005 6.908-5.583 12.497-12.491 12.5l-63.59 0.064c-6.412 0.499-12.481-5.576-12.504-12.472l-0.079-65.71-93.817 0.41 0.868 194.191 24.481 16.644 113.533 76.995 135.61-94.804-0.849-194.221z" />
<glyph unicode="&#xe629;" glyph-name="mortgage-medium" d="M928.38 513.045l-191.942 132.041 0.567 233.469c0.022 5.072-1.972 9.929-5.557 13.524-3.579 3.583-8.438 5.603-13.485 5.603l-411.62 0.312c-0.019 0-0.038 0-0.056 0h-0.408c-0.047 0-0.093-0.006-0.14-0.007-0.544-0.004-1.087-0.030-1.627-0.080-0.061-0.006-0.121-0.009-0.181-0.016-1.187-0.121-2.358-0.354-3.502-0.694-0.075-0.022-0.148-0.046-0.222-0.069-0.501-0.155-0.995-0.331-1.482-0.528-0.069-0.028-0.139-0.054-0.208-0.082-1.061-0.444-2.083-0.986-3.057-1.624-0.124-0.081-0.245-0.166-0.367-0.25-0.352-0.243-0.696-0.498-1.034-0.766-0.128-0.102-0.257-0.201-0.383-0.306-0.434-0.363-0.857-0.74-1.262-1.146l-197.939-197.396c-0.435-0.432-0.837-0.887-1.224-1.352-0.034-0.041-0.066-0.083-0.099-0.124-0.372-0.455-0.719-0.923-1.044-1.404-0.008-0.012-0.016-0.023-0.023-0.035-1.044-1.558-1.842-3.245-2.382-5.008-0.001-0.005-0.003-0.010-0.005-0.016-0.354-1.157-0.598-2.342-0.727-3.544-0.011-0.097-0.017-0.194-0.026-0.291-0.044-0.476-0.069-0.953-0.077-1.432-0.002-0.087-0.014-0.173-0.014-0.261l-1.49-663.629c-0.027-5.098 1.969-9.931 5.552-13.514 3.583-3.605 8.44-5.627 13.491-5.627l609.565-0.793c10.506 0 19.066 8.511 19.066 19.021l0.494 183.094 108.087-0.473c0.050 0 0.075 0 0.099 0 5.024 0 9.858 1.971 13.411 5.53 3.609 3.562 5.629 8.395 5.677 13.465l1.252 292.335 42.68-29.355c3.295-2.284 7.066-3.366 10.796-3.366 6.062 0 12.049 2.886 15.752 8.272 5.96 8.681 3.775 20.559-4.906 26.522zM286.689 832.819l-0.289-132.655-132.399 0.336 132.688 132.319zM696.925 36.186l-571.38 0.744 1.438 625.461 178.413-0.423c0.026 0 0.049 0 0.049 0 5.050 0 9.88 1.996 13.463 5.554 3.584 3.571 5.604 8.428 5.628 13.502l0.393 178.79 373.895-0.28-0.497-188.231-66.158 45.512c-0.162 0.111-0.333 0.2-0.497 0.305l-2.005 1.402c-6.492 4.557-15.123 4.581-21.664 0.145l-278.453-189.151-113.314-0.124c-10.529 0-19.066-8.561-19.043-19.091 0-10.528 8.537-19.065 19.069-19.065 0.024 0 0.024 0 0.023 0l153.259 0.186-0.259-58.335-152.375-0.469c-10.532-0.027-19.043-8.585-18.995-19.143 0-10.509 8.56-19.021 19.066-19.021 0.026 0 0.026 0 0.076 0.001l152.059 0.471-0.261-58.734-151.174-0.621c-10.533-0.050-19.044-8.61-18.995-19.142 0.023-10.533 8.559-19.021 19.066-19.021 0.023 0 0.049 0 0.069 0.003l150.865 0.595-0.342-77.204c-0.044-5.074 1.951-9.932 5.531-13.514 3.561-3.583 8.395-5.627 13.468-5.65l310.005-1.356-0.423-164.096zM588.146 320.34l59.014 0.021 0.054-79.571-59.033-0.042-0.035 79.592zM824.721 237.898l-139.359 0.602-0.068 100.975c0.013 10.559-8.561 19.084-19.092 19.072l-97.15-0.062c-0.090-0.001-0.168-0.005-0.235-0.005-10.435-0.133-18.84-8.63-18.854-19.091l0.069-100.307-143.453 0.619 1.299 296.763 12.325 8.379 198.616 134.676 207.201-144.836-1.299-296.785z" />
<glyph unicode="&#xe62a;" glyph-name="mortgage-small" d="M837.975 897.981h-437.986c-2.965 0.091-5.917-0.313-8.746-1.172-0.031-0.009-0.062-0.020-0.093-0.029-0.781-0.241-1.552-0.516-2.311-0.826-0.054-0.022-0.109-0.042-0.163-0.065-0.359-0.149-0.714-0.308-1.067-0.473-0.135-0.063-0.269-0.13-0.403-0.196-0.542-0.264-1.075-0.547-1.6-0.848-0.199-0.114-0.399-0.226-0.596-0.345-0.263-0.16-0.522-0.325-0.781-0.494-0.273-0.178-0.542-0.365-0.809-0.553-0.262-0.185-0.521-0.372-0.777-0.566-0.354-0.269-0.7-0.546-1.041-0.832-0.158-0.133-0.314-0.268-0.47-0.404-0.423-0.372-0.839-0.753-1.24-1.152-0.015-0.015-0.030-0.027-0.044-0.042l-213.099-213.12c-0.010-0.010-0.020-0.021-0.030-0.032-0.448-0.446-0.873-0.911-1.285-1.384-0.051-0.059-0.103-0.118-0.153-0.177-0.84-0.981-1.604-2.016-2.289-3.098-0.032-0.050-0.063-0.099-0.094-0.149-0.651-1.042-1.228-2.125-1.73-3.243-0.064-0.141-0.127-0.282-0.188-0.424-0.207-0.482-0.403-0.968-0.582-1.461-0.074-0.203-0.139-0.408-0.208-0.613-0.115-0.342-0.225-0.686-0.326-1.033-0.083-0.281-0.161-0.563-0.234-0.847-0.056-0.219-0.106-0.439-0.157-0.66-0.147-0.634-0.271-1.272-0.374-1.916-0.014-0.092-0.031-0.185-0.044-0.277-0.062-0.417-0.113-0.835-0.155-1.255-0.001-0.015-0.002-0.030-0.004-0.046-0.113-1.147-0.164-2.302-0.13-3.459v-631.512c0-15.067 12.177-27.277 27.281-27.277h651.93c15.099 0 27.275 12.21 27.273 27.277v845.39c0 15.101-12.174 27.313-27.275 27.313zM371.832 804.776v-119.897h-119.877l119.877 119.897zM810.696 52.591h-597.374v577.697h185.822c15.065 0 27.313 12.212 27.312 27.297v185.804h384.239v-790.798zM498.593 591.316l-200.339-135.26c-12.485-8.463-15.79-25.421-7.326-37.905 5.228-7.811 13.864-12.009 22.634-12.009 3.080 0 6.191 0.541 9.188 1.616l-2.31-181.608c-0.102-7.24 2.685-14.224 7.741-19.4 5.055-5.194 11.939-8.153 19.195-8.238l325.827-4.008c0.103 0 0.242 0 0.345 0 7.12 0 13.967 2.77 19.090 7.755 5.162 5.060 8.121 11.974 8.186 19.212l2.155 182.020c3.59-1.627 7.412-2.438 11.191-2.438 8.533 0 16.964 3.99 22.298 11.487 8.738 12.282 5.845 29.326-6.469 38.062l-195.938 139.248c-2.233 1.591-4.627 2.791-7.102 3.624-3.961 1.82-8.252 2.65-12.521 2.481-5.449 0.118-10.987-1.374-15.845-4.639zM646.58 249.441l-271.239 3.317 2.441 190.983 137.288 91.811 133.746-95.078-2.236-191.033z" />
<glyph unicode="&#xe62b;" glyph-name="play" d="M845.021 498.386l-213.075 124.42c-47.47 27.675-125.31 73.075-172.989 100.831l-220.982 124.313c-47.47 27.806-94.153 5.499-94.153-49.696v-700.597c0-54.956 46.684-77.421 94.153-49.67l217.002 124.396c47.758 27.676 127.512 73.052 175.006 100.777l214.044 124.397c47.574 27.753 48.49 73.049 0.994 100.829z" />
<glyph unicode="&#xe62c;" glyph-name="profile" d="M745.213 703.39c0-129.728-104.568-235.056-233.47-235.056-128.434 0-232.957 105.328-232.957 235.056 0 129.237 104.523 234.61 232.957 234.61 128.902 0 233.47-105.373 233.47-234.61zM874.809-42h-725.617c5.944 300.211 56.619 411.215 362.551 411.215 306.487 0 357.075-111.004 363.066-411.215z" />
<glyph unicode="&#xe62d;" glyph-name="reloadable-medium" d="M189.838 551.275h-37.498c-29.987 0-54.347-24.362-54.347-54.324 0-30.008 24.36-54.369 54.347-54.369h37.498c30.006 0 54.368 24.361 54.368 54.369 0 29.963-24.362 54.324-54.368 54.324zM189.838 478.692h-37.498c-10.042 0-18.239 8.196-18.239 18.26 0 10.017 8.197 18.214 18.239 18.214h37.498c10.063 0 18.258-8.196 18.258-18.214 0-10.066-8.195-18.26-18.258-18.26zM852.74 523.245v186.63c0 49.975-40.66 90.638-90.661 90.638h-671.441c-49.975 0-90.638-40.663-90.638-90.638v-373.847c0-49.997 40.663-90.661 90.638-90.661h511.336c28.073-86.861 109.708-149.879 205.799-149.879 119.237 0 216.227 97.013 216.227 216.225 0 103.819-73.537 190.778-171.26 211.532zM816.631 682.097v-30.394h-780.521v30.394h780.521zM90.638 764.38h671.441c27.228 0 49.86-20.038 53.906-46.128h-779.23c4.042 26.090 26.658 46.128 53.883 46.128zM90.638 281.501c-30.075 0-54.528 24.472-54.528 54.528v279.542h780.521v-87.806c-2.939 0.119-5.89 0.196-8.857 0.196-119.233 0-216.227-97.014-216.227-216.248 0-10.252 0.734-20.336 2.121-30.212h-503.030zM807.773 131.619c-99.312 0-180.114 80.782-180.114 180.094s80.802 180.115 180.114 180.115c99.315 0 180.117-80.803 180.114-180.115 0.001-99.314-80.801-180.094-180.114-180.094zM905.405 333.298h-79.575v79.55c0 9.973-8.059 18.076-18.057 18.076-9.994 0-18.057-8.101-18.057-18.076v-79.55h-79.568c-9.996 0-18.058-8.103-18.058-18.079 0-9.973 8.062-18.078 18.058-18.078h79.568v-79.55c0-9.994 8.065-18.055 18.057-18.055 9.998 0 18.057 8.061 18.057 18.055v79.55h79.575c9.991 0 18.055 8.105 18.055 18.078 0 9.975-8.064 18.079-18.055 18.079z" />
<glyph unicode="&#xe62e;" glyph-name="reloadable-small" d="M823.25 529.344v292.762c0 16.104-13.017 29.174-29.157 29.174h-752.936c-16.141 0-29.157-13.069-29.157-29.174v-536.395c0-16.141 13.016-29.19 29.157-29.19h481.938c16.542-119.505 119.325-211.801 243.28-211.801 135.439 0 245.625 110.183 245.625 245.661 0 115.85-80.645 213.232-188.75 238.963zM764.94 792.935v-103.583h-694.628v103.583h694.628zM70.312 614.058h694.628v-78.072c-126.53-0.729-230.688-97.615-242.971-221.121h-451.657v299.193zM766.375 103.062c-103.269 0-187.315 84.026-187.315 187.316 0 103.257 84.047 187.284 187.315 187.284 103.27 0 187.315-84.027 187.317-187.284 0-103.289-84.047-187.316-187.317-187.316zM866.265 319.534h-70.737v70.736c0 16.122-13.012 29.155-29.152 29.155-16.135 0-29.151-13.033-29.151-29.155v-70.735h-70.737c-16.139 0-29.19-13.052-29.19-29.154 0-16.138 13.052-29.189 29.19-29.189h70.736v-70.735c0-16.104 13.017-29.173 29.152-29.173 16.14 0 29.151 13.068 29.151 29.173v70.733h70.737c16.14 0 29.19 13.051 29.19 29.189 0.001 16.103-13.050 29.155-29.189 29.155z" />
<glyph unicode="&#xe62f;" glyph-name="right-progress" d="M793.54 448.145c0-13.534-5.402-26.495-14.985-36.077l-460.982-461.114c-19.903-19.938-52.22-19.938-72.158 0-19.938 19.872-19.938 52.22 0 72.158l424.908 425.033-424.909 424.743c-19.938 19.938-19.903 52.226-0.031 72.158 19.938 19.938 52.251 19.938 72.189 0l460.982-460.791c9.584-9.583 14.986-22.569 14.986-36.11z" />
<glyph unicode="&#xe630;" glyph-name="savings-large" d="M512.008 960.008c-282.315 0-512.008-229.678-512.008-512.008s229.693-512.008 512.008-512.008c282.314 0 511.992 229.678 511.992 512.008s-229.677 512.008-511.992 512.008zM512.008-39.020c-268.56 0-487.035 218.475-487.035 487.020s218.474 487.020 487.035 487.020c268.545 0 487.021-218.475 487.021-487.020s-218.476-487.020-487.021-487.020zM857.562 491.761h-34.205v66.828c0 32.604-24.282 60.519-56.478 64.956-0.567 0.095-1.133 0.126-1.684 0.126l-40.74 0.11v90.968c0 1.071-0.125 2.141-0.408 3.179-7.586 28.828-33.708 48.97-63.479 48.97-5.602 0-11.203-0.723-15.861-1.982l-377.751-73.486c-34.996-9.189-54.256-36.962-54.256-78.19l-0.346-325.713c0-50.137 26.781-74.493 81.855-74.493l463.449-0.283c36.223 0 65.695 29.458 65.699 65.649v78.018h34.205c37.311 0 67.68 30.354 67.68 67.664 0 37.325-30.369 67.679-67.68 67.679zM272.51 667.104l377.736 73.485c3.383 0.882 6.859 1.322 10.322 1.322 17.939 0 33.736-11.802 38.915-28.89v-19.491l-427.509-69.104c-0.939-0.151-1.832-0.413-2.679-0.753h-31.115c2.498 23.762 13.979 38.056 34.33 43.431zM699.483 668.217v-44.544h-275.68l275.68 44.544zM798.381 278.4c0-22.426-18.27-40.68-40.723-40.68l-463.432 0.301c-47.381 0-56.916 18.947-56.916 49.475l0.331 311.188h516.713c0.263 0 0.52 0.023 0.778 0.039l9.104-0.024c19.513-3.068 34.146-20.188 34.146-40.109v-66.829h-42.392c-37.326 0-67.68-30.354-67.68-67.679 0-37.31 30.354-67.664 67.68-67.664h42.391v-78.018zM857.562 381.391h-101.572c-23.541 0-42.707 19.15-42.707 42.691s19.166 42.706 42.707 42.706h101.572c23.541 0 42.688-19.166 42.688-42.706s-19.146-42.691-42.688-42.691zM854.634 443.138c-10.53 0-19.057-8.529-19.057-19.056 0-10.512 8.526-19.041 19.057-19.041s19.058 8.529 19.058 19.041c-0.001 10.526-8.528 19.056-19.058 19.056z" />
<glyph unicode="&#xe631;" glyph-name="savings-medium" d="M926.809 450.803h-49.139v95.971c0 46.832-34.877 86.95-81.145 93.324-0.791 0.113-1.582 0.158-2.396 0.158l-58.518 0.185v130.643c0 1.536-0.203 3.073-0.588 4.565-10.918 41.408-48.393 70.34-91.203 70.34-8.002 0-16.047-1.040-22.783-2.825l-542.582-105.578c-50.268-13.199-77.957-53.070-77.957-112.312l-0.498-467.856c0-71.99 38.471-106.98 117.628-106.977l665.675-0.433c52.031 0 94.367 42.312 94.367 94.322v112.043h49.139c53.613 0 97.191 43.624 97.191 97.215s-43.578 97.215-97.191 97.215zM699.743 640.26h-396.053l396.053 64.006v-64.006zM86.434 702.644l542.582 105.555c4.862 1.266 9.858 1.921 14.808 1.921 25.791 0 48.461-16.952 55.92-41.498v-28.010l-614.077-99.245c-1.371-0.222-2.671-0.606-3.905-1.107h-44.62c3.58 34.136 20.039 54.683 49.292 62.384zM841.799 144.334c0-32.209-26.244-58.429-58.473-58.429l-665.699 0.404c-68.080 0-81.732 27.217-81.732 71.087l0.474 446.993h742.209c0.225 0 0.443 0.025 0.666 0.034l13.508-0.037c28.049-4.406 49.047-28.975 49.047-57.612v-95.972h-60.914c-53.589 0-97.19-43.623-97.19-97.215s43.599-97.215 97.19-97.215h60.914v-112.038zM926.809 292.267h-145.924c-33.812 0-61.322 27.485-61.322 61.321 0 33.814 27.511 61.321 61.322 61.321h145.924c33.817 0 61.347-27.507 61.347-61.321-0.001-33.836-27.533-61.321-61.347-61.321zM922.604 380.96c-15.121 0-27.351-12.272-27.351-27.372 0-15.121 12.229-27.372 27.351-27.372 15.1 0 27.35 12.251 27.35 27.372-0.001 15.1-12.251 27.372-27.35 27.372z" />
<glyph unicode="&#xe632;" glyph-name="savings-small" d="M868.89 652.995c-1.425 0.223-2.891 0.326-4.32 0.326l-43.599 0.124v115.13c0 2.774-0.328 5.525-1.061 8.198-12.396 47.512-55.381 80.689-104.485 80.689-9.218 0-18.474-1.204-25.448-3.080l-539.23-104.956c-56.934-14.927-88.254-59.502-88.254-125.51l-0.491-464.252c0-80.099 44.208-120.719 131.24-120.719l660.563-0.406c59.662 0 108.195 48.511 108.195 108.134v399.328c0 53.69-40.050 99.734-93.11 106.994zM165.099 686.355l539.273 104.957c3.632 0.916 7.344 1.426 11.055 1.426 18.431 0 34.746-11.727 40.864-28.896v-110.52h-625.234c6.861 22.524 21.751 29.763 34.042 33.033zM897.236 146.674c0-23.937-19.496-43.413-43.394-43.413l-660.562 0.408c-61.785 0-66.516 23.204-66.516 55.954l0.451 428.976h721.856c0.418 0 0.833 0.016 1.247 0.031l11.601-0.032c20.268-3.689 35.316-21.696 35.316-42.597v-399.327z" />
<glyph unicode="&#xe633;" glyph-name="search" d="M987.003 45.372l-223.256 223.212c54.907 70.361 87.642 158.81 87.599 254.739 0 228.648-185.937 414.677-414.671 414.677-228.646 0-414.675-186.029-414.675-414.626-0.097-228.645 185.888-414.77 414.627-414.866 0.049 0 0.049 0 0.093 0 95.934 0.040 184.34 32.806 254.657 87.698l223.249-223.209c10.003-10 23.097-14.998 36.189-14.998s26.186 4.998 36.187 14.998c19.997 19.996 19.997 52.378 0.001 72.375zM436.677 210.882c-172.271 0.093-312.401 140.269-312.304 312.442 0 172.223 140.082 312.305 312.495 312.305 172.076 0 312.109-140.083 312.11-312.35 0.094-172.13-140.032-312.303-312.301-312.397z" />
<glyph unicode="&#xe634;" glyph-name="secure" d="M787.729 615.324h-55.172v22.163c0 121.604-98.969 220.513-220.601 220.513-121.604 0-220.511-98.909-220.511-220.513v-22.163h-55.144c-26.755 0-48.446-21.691-48.446-48.447v-480.462c0-26.727 21.691-48.415 48.446-48.415h551.427c26.729 0 48.416 21.688 48.416 48.415v480.462c0.001 26.756-21.687 48.447-48.415 48.447zM385.492 637.487c0 69.723 56.745 126.463 126.464 126.463 69.78 0 126.492-56.741 126.492-126.463v-22.163h-252.956v22.163zM739.312 134.83h-454.564v383.601h454.563v-383.601zM465.021 333.534v-98.907c0-25.956 21.037-47.053 47.024-47.053 25.985 0 47.025 21.097 47.025 47.053v98.966c1.954 1.601 4.354 2.313 6.191 4.151 28.979 29.332 28.862 76.921-0.297 106.196-28.386 28.207-77.336 28.563-106.314-0.355-28.833-29.217-28.772-76.685 0.326-106.019 1.748-1.778 4.149-2.49 6.045-4.032z" />
<glyph unicode="&#xe635;" glyph-name="share" d="M761.974 298.017c-34.327 0-65.862-11.733-91.2-31.175l-260.985 156.573c1.343 7.989 2.173 16.26 2.173 24.636 0 8.272-0.83 16.492-2.173 24.532l260.984 156.522c25.337-19.438 56.873-31.122 91.199-31.122 82.826 0 150.032 67.208 150.032 149.98 0.002 82.903-67.204 150.037-150.030 150.037s-150.034-67.134-150.034-150.034c0-8.376 0.824-16.492 2.271-24.532l-260.984-156.548c-25.33 19.464-56.868 31.1-91.298 31.1-82.826 0-149.935-67.16-149.935-149.934 0-82.926 67.109-150.035 149.935-150.035 34.431 0 65.968 11.634 91.298 31.101l260.984-156.578c-1.446-8.065-2.271-16.13-2.271-24.506 0-82.901 67.207-150.034 150.034-150.034s150.032 67.133 150.032 150.034c0 82.721-67.206 149.983-150.032 149.983z" />
<glyph unicode="&#xe636;" glyph-name="speech" d="M701.568 861.022h-379.16c-86.094 0-167.055-33.521-228.022-94.406-60.868-60.887-94.386-141.867-94.386-228.004 0-177.797 144.631-322.431 322.408-322.431h58.271l195.336-172.894c6.149-5.445 13.923-8.312 21.86-8.312 3.906 0 7.812 0.707 11.597 2.118 11.429 4.281 19.533 14.548 21.11 26.643l19.742 152.444h51.244c177.799 0 322.432 144.634 322.432 322.431 0 177.78-144.633 322.411-322.432 322.411zM701.568 282.183h-80.254c-16.582 0-30.589-12.344-32.709-28.76l-15.459-119.488-158.1 139.936c-6.024 5.361-13.798 8.312-21.858 8.312h-70.779c-141.41 0-256.451 115.041-256.451 256.431 0 68.514 26.66 132.934 75.080 181.352 48.48 48.421 112.9 75.103 181.371 75.103h379.16c141.39-0.003 256.431-115.044 256.431-256.456 0-141.389-115.041-256.43-256.432-256.43zM627.258 566.106h-82.248v82.27c0 18.226-14.774 32.979-33 32.979s-32.979-14.754-32.979-32.979v-82.27h-82.312c-18.226 0-32.979-14.754-32.979-32.979s14.754-32.979 32.979-32.979h82.312v-82.312c0-18.203 14.754-33 32.979-33 18.226 0 33 14.797 33 33v82.312h82.248c18.203 0 33 14.754 33 32.979 0 18.227-14.797 32.979-33 32.979z" />
<glyph unicode="&#xe637;" glyph-name="twitter" d="M1024 765.58c-37.664-16.64-78.11-27.973-120.556-33.11 43.337 26 76.673 67.11 92.337 116.275-40.556-24.11-85.556-41.611-133.446-50.942-38.335 40.75-92.999 66.221-153.336 66.221-115.999 0-209.999-93.944-209.999-210.056 0-16.334 1.78-32.441 5.336-47.775-174.554 8.609-329.336 92.278-432.999 219.416-18.109-30.944-28.445-67.14-28.445-105.611 0-72.861 37.108-137.139 93.445-174.832-34.445 1.055-66.772 10.582-95.109 26.25v-2.667c0-101.667 72.445-186.611 168.445-205.944-17.672-4.774-36.108-7.333-55.227-7.333-13.555 0-26.772 1.333-39.555 3.693 26.782-83.418 104.228-144.192 196.228-145.778-71.891-56.356-162.445-90.023-260.891-90.023-16.891 0-33.782 1.083-50.228 2.973 93.117-59.584 203.445-94.361 322.117-94.361 386.443 0 597.665 320.060 597.665 597.666 0 9.111-0.111 18.168-0.56 27.224 41.115 29.605 76.668 66.659 104.778 108.714z" />
<glyph unicode="&#xe638;" glyph-name="up-expansion" d="M511.855 729.54c13.535 0 26.496-5.402 36.078-14.985l461.113-460.982c19.938-19.903 19.938-52.221 0-72.158-19.872-19.938-52.22-19.938-72.158 0l-425.032 424.907-424.744-424.908c-19.938-19.938-52.225-19.902-72.158-0.031-19.938 19.938-19.938 52.251 0 72.189l460.791 460.982c9.583 9.584 22.57 14.986 36.11 14.986z" />
<glyph unicode="&#xe639;" glyph-name="youtube" d="M1013.664 652.722c0 0-9.891 70.529-40.664 101.668-38.891 40.777-82.562 40.889-102.562 43.361-143.326 10.332-358.219 10.332-358.219 10.332h-0.445c0 0-215 0-358.219-10.332-20-2.473-63.672-2.584-102.672-43.361-30.664-31.139-40.664-101.668-40.664-101.668s-10.219-82.832-10.219-165.721v-77.641c0-82.943 10.219-165.777 10.219-165.777s10-70.5 40.664-101.639c39-40.807 90.117-39.443 113-43.693 81.781-7.918 348.117-10.334 348.117-10.334s215.109 0.361 358.438 10.666c20 2.445 63.674 2.557 102.562 43.361 30.773 31.139 40.664 101.639 40.664 101.639s10.336 82.834 10.336 165.777v77.641c0 82.889-10.336 165.721-10.336 165.721zM406.219 315.167v287.666l276.664-144.361-276.664-143.305z" />
<glyph unicode="&#xe63a;" glyph-name="play-small" d="M512 960c-282.8 0-512-229.2-512-512s229.2-512 512-512 512 229.2 512 512-229.2 512-512 512zM694.3 426.1l-93-54.1c-20.6-12-55.3-31.8-76.1-43.8l-94.3-54.1c-20.6-12.1-40.9-2.3-40.9 21.6v304.5c0 24 20.3 33.7 40.9 21.6l96-54c20.7-12.1 54.5-31.8 75.2-43.8l92.6-54.1c20.7-12.1 20.3-31.8-0.4-43.8z" />
<glyph unicode="&#xe63b;" glyph-name="bank-large" d="M427.355 278.798c-9.461 0-17.133-7.676-17.133-17.121 0-9.459 7.674-17.118 17.133-17.118 9.444 0 17.103 7.659 17.103 17.118 0 9.445-7.658 17.121-17.103 17.121zM769.179 582.153h-190.983v103.745c0 5.309-4.307 9.616-9.616 9.616h-282.479c-5.309 0-9.616-4.308-9.616-9.616v-475.794c0-5.311 4.308-9.619 9.616-9.619h282.479c5.31 0 9.616 4.309 9.616 9.619v161.692h190.982c5.717 0 10.337 4.621 10.337 10.339v189.681c0.001 5.718-4.619 10.337-10.336 10.337zM558.963 219.719h-263.246v456.562h263.246v-94.128h-29.084v52.984c0 5.309-4.307 9.616-9.616 9.616h-185.845c-5.31 0-9.615-4.308-9.615-9.616v-321.462c0-5.311 4.306-9.617 9.615-9.617h185.845c5.31 0 9.616 4.307 9.616 9.617v58.12h29.084v-152.076zM424.317 371.796h86.33v-48.505h-166.612v302.23h166.612v-43.368h-86.33c-5.716 0-10.337-4.619-10.337-10.337v-189.682c0-5.717 4.621-10.338 10.337-10.338zM758.842 392.472h-324.188v169.007h324.188v-169.007zM474.686 467.319h246.914c5.714 0 10.336 4.62 10.336 10.338 0 5.717-4.622 10.336-10.336 10.336h-246.914c-5.715 0-10.336-4.619-10.336-10.336s4.621-10.338 10.336-10.338zM721.6 443.969h-92.314c-5.717 0-10.336-4.621-10.336-10.338s4.619-10.338 10.336-10.338h92.314c5.714 0 10.336 4.621 10.336 10.338s-4.624 10.338-10.336 10.338zM512.002 959.995c-282.317 0-511.998-229.694-511.998-512.007 0-282.309 229.681-511.983 511.998-511.983 282.332 0 511.979 229.676 511.979 511.983-0.001 282.313-229.647 512.007-511.979 512.007zM512.002-39.015c-268.558 0-487.037 218.46-487.037 487.003 0 268.548 218.479 487.017 487.037 487.017 268.548 0 487.018-218.469 487.018-487.017 0-268.543-218.47-487.003-487.018-487.003z" />
<glyph unicode="&#xe63c;" glyph-name="pinterest" d="M512 903.2c-251.4 0-455.2-203.8-455.2-455.2 0-192.8 120-357.6 289.3-423.9-4 36-7.6 91.3 1.6 130.6 8.3 35.5 53.4 226.3 53.4 226.3s-13.6 27.3-13.6 67.6c0 63.3 36.7 110.5 82.4 110.5 38.8 0 57.6-29.2 57.6-64.1 0-39.1-24.9-97.4-37.7-151.6-10.7-45.3 22.7-82.3 67.4-82.3 80.9 0 143.1 85.3 143.1 208.5 0 109-78.3 185.2-190.1 185.2-129.5 0-205.5-97.1-205.5-197.5 0-39.1 15.1-81.1 33.9-103.9 3.7-4.5 4.3-8.5 3.2-13.1-3.5-14.4-11.1-45.3-12.6-51.6-2-8.3-6.6-10.1-15.2-6.1-56.9 26.5-92.4 109.6-92.4 176.3 0 143.6 104.3 275.5 300.8 275.5 157.9 0 280.6-112.5 280.6-262.9 0-156.9-98.9-283.1-236.2-283.1-46.1 0-89.5 24-104.3 52.3 0 0-22.8-86.9-28.4-108.2-10.3-39.5-38-89.1-56.6-119.3 42.6-13.2 87.9-20.3 134.8-20.3 251.4 0 455.2 203.8 455.2 455.2-0.3 251.3-204.1 455.1-455.5 455.1z" />
<glyph unicode="&#xe63d;" glyph-name="bank-medium" d="M329.043 140.412c-17.198 0-31.147-13.952-31.147-31.121 0-17.196 13.95-31.119 31.147-31.119 17.168 0 31.090 13.923 31.090 31.119 0 17.169-13.922 31.121-31.090 31.121zM950.432 691.873h-347.182v188.594c0 9.651-7.828 17.48-17.48 17.48h-513.509c-9.652 0-17.482-7.83-17.482-17.48v-864.93c0-9.653 7.83-17.484 17.482-17.484h513.509c9.652 0 17.48 7.831 17.48 17.484v293.937h347.182c10.392 0 18.79 8.398 18.79 18.792v344.816c0 10.392-8.4 18.791-18.79 18.791zM568.287 33.016h-478.545v829.969h478.545v-171.112h-52.87v96.317c0 9.652-7.829 17.481-17.481 17.481h-337.841c-9.652 0-17.481-7.83-17.481-17.481v-584.373c0-9.653 7.83-17.483 17.481-17.483h337.841c9.652 0 17.481 7.83 17.481 17.483v105.657h52.87v-276.458zM323.52 309.474h156.934v-88.177h-302.878v549.412h302.878v-78.836h-156.934c-10.391 0-18.791-8.399-18.791-18.791v-344.816c0-10.394 8.399-18.792 18.791-18.792zM931.641 347.057h-589.331v307.233h589.331v-307.233zM415.083 483.12h448.853c10.391 0 18.791 8.398 18.791 18.792s-8.4 18.791-18.791 18.791h-448.853c-10.391 0-18.791-8.399-18.791-18.791s8.4-18.792 18.791-18.792zM863.936 440.67h-167.812c-10.394 0-18.791-8.398-18.791-18.791s8.397-18.791 18.791-18.791h167.812c10.391 0 18.791 8.398 18.791 18.791s-8.402 18.791-18.791 18.791z" />
<glyph unicode="&#xe63e;" glyph-name="bank-small" d="M359.352 122.259c22.998 0 41.633 18.672 41.633 41.705 0 22.998-18.635 41.635-41.633 41.635s-41.67-18.637-41.67-41.635c0-23.033 18.672-41.705 41.67-41.705zM905.904 723.938h-265.66v140.54c0 16.195-13.162 29.357-29.357 29.357h-494.53c-16.195 0-29.357-13.162-29.357-29.357v-832.955c0-16.193 13.162-29.357 29.357-29.357h494.529c16.195 0 29.357 13.164 29.357 29.357v298.16h265.66c17.193 0 31.096 13.902 31.096 31.096v332.066c0.001 17.191-13.901 31.093-31.095 31.093zM581.529 60.88h-435.814v774.24h435.814v-111.182h-279.377c-17.193 0-31.096-13.902-31.096-31.094v-332.066c0-17.193 13.902-31.096 31.096-31.096h279.377v-268.802zM874.809 391.874h-541.561v269.875h541.561v-269.875zM646.789 439.312h161.615c17.191 0 31.094 13.902 31.094 31.096s-13.902 31.096-31.094 31.096h-161.615c-17.193 0-31.096-13.902-31.096-31.096s13.903-31.096 31.096-31.096z" />
<glyph unicode="&#xe63f;" glyph-name="cpc-large" d="M515.572 455.993c50.73 0 91.863 41.447 91.863 92.493 0 50.841-41.133 92.289-91.863 92.289-50.527 0-91.651-41.447-91.651-92.289 0-51.046 41.124-92.493 91.651-92.493zM704.665 477.566c36.695 0 66.561 30.023 66.561 66.923 0 36.836-29.865 66.828-66.561 66.828-36.632 0-66.436-29.992-66.436-66.828 0-36.899 29.804-66.923 66.436-66.923zM704.665 586.33c22.942 0 41.573-18.772 41.573-41.84 0-23.131-18.631-41.935-41.573-41.935-22.863 0-41.447 18.804-41.447 41.935 0 23.068 18.584 41.84 41.447 41.84zM704.665 451.98c-59.401 0-86.23-16.349-98.095-51.407-20.96 11.235-50.086 16.428-90.998 16.428-44.846 0-75.711-6.090-96.954-19.795-11.274 37.45-38.009 54.774-99.401 54.774-89.424 0-105.247-36.82-106.859-119.29-0.079-3.352 1.204-6.593 3.556-9.001 2.353-2.392 5.562-3.745 8.914-3.745h152.784c-2.817-18.536-4.186-39.904-4.689-64.735h285.497c-0.504 24.831-1.857 46.199-4.674 64.735h145.427c3.367 0 6.562 1.354 8.938 3.745 2.329 2.408 3.619 5.649 3.541 9.001-1.623 82.47-17.484 119.29-106.987 119.29zM382.765 344.933h-145.081c2.549 64.185 15.633 82.061 81.533 82.061 53.194 0 72.013-11.645 78.646-49.74-6.491-9.080-11.471-19.701-15.098-32.321zM648.568 344.933c-4.626 16.145-11.456 29.095-20.976 39.496 7.773 32.415 27.442 42.564 77.072 42.564 65.979 0 79.086-17.876 81.667-82.061h-137.763zM319.233 477.566c36.688 0 66.561 30.023 66.561 66.923 0 36.836-29.874 66.828-66.561 66.828-36.632 0-66.451-29.992-66.451-66.828 0-36.899 29.819-66.923 66.451-66.923zM319.233 586.33c22.927 0 41.565-18.772 41.565-41.84 0-23.131-18.639-41.935-41.565-41.935-22.871 0-41.463 18.804-41.463 41.935 0 23.068 18.592 41.84 41.463 41.84zM512.016 960c-282.318 0-512.008-229.69-512.008-512s229.69-512 512.008-512c282.309 0 511.984 229.69 511.984 512s-229.675 512-511.984 512zM512.016-39.013c-268.557 0-487.036 218.472-487.036 487.013s218.479 487.012 487.036 487.012c268.541 0 486.997-218.471 486.997-487.012s-218.456-487.013-486.997-487.013z" />
<glyph unicode="&#xe640;" glyph-name="two-device" d="M1004.691 560.385h-55.777v226.324c0 10.663-8.638 19.309-19.31 19.309h-910.294c-10.674 0-19.31-8.646-19.31-19.309v-520.165c0-10.663 8.636-19.308 19.31-19.308h343.564v-49.499h-66.148c-10.672 0-19.31-8.646-19.31-19.309 0-10.665 8.637-19.309 19.31-19.309h84.383c0.377-0.020 0.698-0.218 1.075-0.218h184.585c0.378 0 0.696 0.198 1.075 0.218h84.345c10.672 0 19.31 8.644 19.31 19.309 0 10.663-8.638 19.309-19.31 19.309h-66.11v49.499h119.171v-137.945c0-10.663 8.637-19.309 19.31-19.309h280.132c10.672 0 19.309 8.646 19.309 19.309v431.784c-0.001 10.663-8.638 19.31-19.31 19.31zM547.459 197.737h-145.967v49.499h145.967v-49.499zM705.25 541.075v-255.223h-138.066c-0.151 0-0.264 0.085-0.415 0.085h-184.586c-0.151 0-0.283-0.085-0.415-0.085h-343.15v481.547h871.677v-207.015h-185.735c-10.673 0.001-19.31-8.646-19.31-19.309zM985.381 128.6h-241.512v393.167h241.512v-393.167zM864.645 137.736c7.881 0 14.272 6.383 14.272 14.265s-6.392 14.265-14.272 14.265c-7.883 0-14.274-6.383-14.274-14.265s6.391-14.265 14.274-14.265z" />
<glyph unicode="&#xe641;" glyph-name="more-circle" d="M512.031 959.988c-282.325 0-512.031-229.675-512.031-511.992 0-282.311 229.706-511.984 512.031-511.984 282.294 0 511.969 229.675 511.969 511.984 0 282.317-229.675 511.992-511.969 511.992zM231.769 371.267c-42.38 0-76.729 34.354-76.729 76.723 0 42.392 34.35 76.744 76.729 76.744s76.733-34.352 76.733-76.744c0-42.37-34.354-76.723-76.733-76.723zM512 371.267c-42.381 0-76.734 34.354-76.734 76.723 0 42.392 34.354 76.744 76.734 76.744 42.375 0 76.729-34.352 76.729-76.744 0-42.37-34.352-76.723-76.729-76.723zM792.227 371.267c-42.381 0-76.732 34.354-76.732 76.723 0 42.392 34.352 76.744 76.73 76.744 42.381 0 76.736-34.352 76.736-76.744 0-42.369-34.356-76.723-76.734-76.723z" />
<glyph unicode="&#xe642;" glyph-name="more-outline-circle" d="M273.345 513.696c-36.139 0-65.384-29.245-65.384-65.382 0-36.139 29.245-65.382 65.384-65.382 36.136 0 65.381 29.243 65.381 65.382 0 36.033-29.245 65.382-65.381 65.382zM512.21 513.696c-36.138 0-65.384-29.245-65.384-65.382 0-36.139 29.246-65.382 65.384-65.382 36.137 0 65.382 29.243 65.382 65.382 0 36.033-29.35 65.382-65.382 65.382zM750.97 513.696c-36.139 0-65.383-29.245-65.383-65.382 0-36.139 29.244-65.382 65.383-65.382 36.137 0 65.381 29.243 65.381 65.382 0 36.033-29.245 65.382-65.381 65.382zM945.027 630.986c-23.71 55.984-57.549 106.221-100.684 149.355s-93.374 77.080-149.357 100.685c-57.966 24.545-119.484 36.974-182.986 36.974-63.399 0-125.020-12.429-182.986-36.973-55.983-23.71-106.22-57.55-149.355-100.685s-77.080-93.373-100.685-149.355c-24.545-57.967-36.974-119.486-36.974-182.987s12.429-125.020 36.973-182.986c23.71-55.983 57.55-106.223 100.685-149.357s93.373-77.079 149.355-100.684c57.967-24.542 119.486-36.973 182.987-36.973 63.398 0 125.020 12.431 182.986 36.973 55.983 23.71 106.223 57.549 149.357 100.684s77.079 93.374 100.684 149.357c24.542 57.966 36.973 119.485 36.973 182.986s-12.532 125.020-36.973 182.986zM907.010 281.202c-21.623-51.075-52.537-96.924-91.912-136.3s-85.226-70.289-136.3-91.911c-52.85-22.351-108.937-33.631-166.903-33.631-57.862 0-114.053 11.28-166.901 33.631-51.075 21.622-96.926 52.536-136.301 91.911s-70.29 85.225-91.91 136.3c-22.352 52.85-33.633 108.937-33.633 166.904 0 57.861 11.384 114.052 33.633 166.9 21.62 51.075 52.535 96.926 91.91 136.301s85.227 70.29 136.301 91.91c52.847 22.351 108.934 33.633 166.901 33.633 57.864 0 114.055-11.384 166.903-33.633 51.074-21.62 96.924-52.535 136.3-91.91s70.289-85.227 91.912-136.301c22.35-52.848 33.63-108.935 33.63-166.9 0-57.967-11.281-114.055-33.63-166.904z" />
<glyph unicode="&#xe643;" glyph-name="cpc-medium" d="M518.104 461.672c86.683 0 156.963 70.819 156.963 158.039 0 86.844-70.28 157.688-156.963 157.688-86.333 0-156.601-70.845-156.601-157.688-0.001-87.22 70.268-158.039 156.601-158.039zM841.198 498.506c62.7 0 113.758 51.3 113.758 114.349 0 62.968-51.058 114.215-113.758 114.215-62.564 0-113.541-51.247-113.541-114.215 0-63.049 50.977-114.349 113.541-114.349zM841.198 684.347c39.174 0 71.035-32.076 71.035-71.492 0-39.496-31.861-71.626-71.035-71.626-39.065 0-70.846 32.13-70.846 71.626 0.001 39.416 31.781 71.492 70.846 71.492zM841.172 454.815c-101.47 0-147.284-27.961-167.557-87.864-35.867 19.224-85.606 28.096-155.512 28.096-76.626 0-129.365-10.404-165.661-33.851-19.265 64.018-64.944 93.619-169.842 93.619-152.796 0-179.83-62.914-182.587-203.854-0.134-5.727 2.057-11.265 6.077-15.352 4.019-4.114 9.505-6.427 15.231-6.427h261.055c-4.812-31.645-7.152-68.156-8.012-110.583h487.815c-0.86 42.427-3.172 78.938-7.984 110.583h248.512c5.699 0 11.185 2.312 15.245 6.427 3.979 4.087 6.184 9.625 6.049 15.352-2.797 140.94-29.871 203.854-182.829 203.854zM43.287 271.88c4.356 109.697 26.713 140.239 139.313 140.239 90.89 0 123.046-19.922 134.378-85.014-11.090-15.487-19.6-33.663-25.797-55.226h-247.894zM745.349 271.88c-7.904 27.586-19.573 49.739-35.841 67.485 13.256 55.387 46.891 72.754 131.664 72.754 112.762 0 135.186-30.542 139.541-140.239h-235.364zM182.613 498.506c62.7 0 113.744 51.3 113.744 114.349 0 62.968-51.044 114.215-113.744 114.215-62.579 0-113.542-51.247-113.542-114.215 0.001-63.049 50.964-114.349 113.542-114.349zM182.613 684.347c39.188 0 71.035-32.076 71.035-71.492 0-39.496-31.847-71.626-71.035-71.626-39.066 0-70.833 32.13-70.833 71.626 0 39.416 31.767 71.492 70.833 71.492z" />
<glyph unicode="&#xe644;" glyph-name="cpc-small" d="M331.019 466.55c117.712 0 213.207 96.152 213.207 214.612 0 118.021-95.495 214.216-213.207 214.216-117.251 0-212.701-96.197-212.701-214.216 0-118.458 95.45-214.612 212.701-214.612zM769.861 510.719c88.424 0 160.299 72.313 160.299 161.178 0 88.734-71.874 160.959-160.299 160.959-88.252 0-160.125-72.225-160.125-160.959 0-88.864 71.873-161.178 160.125-161.178zM769.861 763.136c49.919 0 90.62-40.92 90.62-91.237 0-50.447-40.701-91.412-90.62-91.412-49.834 0-90.36 40.965-90.36 91.412 0 50.317 40.526 91.237 90.36 91.237zM769.773 463.126c-139.666 0-203.725-40.173-232.372-122.585-48.321 24.325-114.595 35.519-206.357 35.519-279.331 0-325.608-101.377-331.052-375.438h662.472c-1.053 54.969-3.95 102.738-9.878 144.362h336.539c9.396 0 18.352 3.778 24.938 10.451 6.5 6.716 10.099 15.761 9.923 25.115-3.774 191.428-42.85 282.577-254.213 282.577zM637.66 214.706c-9.835 32.050-23.403 58.746-41.93 80.612 16.77 75.737 60.195 98.085 174.043 98.085 147.436 0 177.161-36.969 183.438-178.697h-315.551z" />
<glyph unicode="&#xe645;" glyph-name="home2-large" d="M756.271 555.711c-0.094 0.062-0.125 0.188-0.203 0.268l-236.853 167.631c-4.336 3.053-10.119 3.053-14.438 0l-297.633-210.795c-5.641-3.98-6.955-11.786-2.981-17.403 2.438-3.446 6.286-5.271 10.205-5.271 2.494 0 5.026 0.739 7.198 2.281l40.818 28.906v-306.483c0-6.908 5.586-12.511 12.486-12.511h473.976c6.891 0 12.479 5.603 12.479 12.511v306.687l41.070-29.095c5.648-3.98 13.438-2.675 17.434 2.975 3.998 5.602 2.646 13.422-2.956 17.388l-60.602 42.911zM736.367 227.322h-449.011v311.694l224.635 159.104 224.375-158.899 0.001-311.899zM474.628 496.97c-1.031 0-1.904 0.188-3.045 1.291-4.044 3.854-8.749 12.021-13.296 19.906-10.843 18.757-23.101 40.016-44.549 40.016-10.022 0-19.709-4.799-29.605-14.713-10.583-10.574-15.24-21.463-13.84-32.306 2.455-19.088 22.258-30.699 39.725-40.929 7.907-4.642 16.098-9.426 20.008-13.532 0.983-1.039 1.29-1.873 1.211-3.305-0.565-8.702-14.13-23.524-23.139-30.811-2.738-2.234-4.43-5.508-4.626-9.063-0.173-3.541 1.149-6.987 3.643-9.489l46.837-46.845 67.907-79.449c2.273-2.644 5.523-4.218 9.011-4.344 0.155 0 0.321-0.016 0.479-0.016 3.305 0 6.492 1.307 8.828 3.649l110.102 110.104c2.472 2.47 3.791 5.854 3.635 9.314-0.127 3.479-1.715 6.75-4.358 9.001l-79.67 68.089c-0.394 0.329-0.896 0.455-1.322 0.755l-43.721 43.714c-1.103 1.715-2.629 3.178-4.5 4.201-5.318 2.91-11.968 1.573-15.776-3.163-7.398-9.251-21.93-22.075-29.939-22.075zM623.070 395.238l-91-91-51.802 60.63 82.188 82.173 60.614-51.803zM537.68 469.841l5.658-5.648-80.536-80.535-5.657 5.664 80.535 80.519zM520.018 487.496l-80.536-80.504-5.46 5.461c9.284 9.361 21.141 24.153 22.125 39.291 0.551 8.45-2.242 16.13-8.072 22.22-6.334 6.608-15.602 12.054-25.429 17.812-10.614 6.231-26.68 15.643-27.584 22.55-0.338 2.676 2.108 6.876 6.735 11.503 4.705 4.688 9.056 7.396 11.942 7.396 7.026 0 16.578-16.585 22.911-27.538 5.688-9.851 11.055-19.15 17.68-25.46 5.617-5.397 12.644-8.261 20.299-8.261 15.421 0 30.409 11.676 39.914 21.021l5.475-5.491zM512.008 960.008c-282.322 0-512-229.694-512-512.008s229.678-512.008 512-512.008c282.331 0 511.977 229.692 511.977 512.008-0.001 282.313-229.647 512.008-511.977 512.008zM512.008-39.020c-268.561 0-487.043 218.475-487.043 487.021s218.482 487.020 487.043 487.020c268.545 0 487.020-218.474 487.020-487.020s-218.475-487.021-487.020-487.021z" />
<glyph unicode="&#xe646;" glyph-name="home2-medium" d="M1016.656 526.197l-100.672 71.307c-0.156 0.104-0.209 0.288-0.367 0.393l-393.56 278.559c-6.014 4.288-14.094 4.288-20.108 0l-494.6-350.259c-7.844-5.543-9.699-16.421-4.156-24.266 5.543-7.818 16.42-9.675 24.266-4.132l73.111 51.774v-515.831c0-9.623 7.791-17.415 17.389-17.415h787.618c9.623 0 17.416 7.792 17.416 17.415v516.146l73.529-52.088c3.059-2.17 6.59-3.216 10.066-3.216 5.467 0 10.801 2.562 14.199 7.348 5.57 7.844 3.713 18.696-4.131 24.265zM888.162 51.158h-752.815v523.048l376.643 266.715 376.172-266.375v-523.388zM449.914 499.212c-2.902 0-5.125 0.915-7.375 3.086-7.059 6.746-15.008 20.526-22.695 33.836-17.52 30.385-37.42 64.822-71.125 64.822-15.715 0-31.012-7.662-46.805-23.455-16.84-16.813-24.24-33.941-22.070-50.911 3.871-30.045 36.033-48.924 64.377-65.555 13.336-7.818 27.143-15.924 33.994-23.062 2.275-2.38 3.111-4.707 2.902-8.028-1.020-15.662-23.795-40.739-39.668-53.552-3.816-3.085-6.17-7.688-6.432-12.604-0.262-4.942 1.568-9.753 5.072-13.257l77.871-77.896c0.051-0.053 0.104-0.053 0.156-0.104l112.805-132.024c3.164-3.687 7.713-5.909 12.551-6.092 0.236 0 0.471-0.026 0.68-0.026 4.604 0 9.047 1.83 12.316 5.099l182.962 182.933c3.426 3.452 5.281 8.158 5.072 12.996-0.182 4.838-2.404 9.388-6.066 12.552l-132.416 113.143c-0.68 0.602-1.543 0.863-2.301 1.308l-73.059 73.060c-1.516 2.483-3.713 4.602-6.406 6.092-7.4 4.027-16.684 2.223-21.965-4.366-12.682-15.769-37.315-37.995-52.375-37.995zM545.172 177.429l-90.448 105.85 140.942 140.914 105.848-90.448-156.342-156.316zM430.25 309.558l-14.121 14.146 138.536 138.562 14.121-14.146-138.536-138.562zM530.033 486.87l-138.535-138.535-13.859 13.859c15.115 14.878 36.557 40.216 38.23 65.476 0.836 13.048-3.479 24.945-12.5 34.359-10.197 10.668-25.416 19.585-41.523 29.024-20.396 11.976-45.787 26.854-47.486 39.955-0.889 7.139 6.119 15.819 12.133 21.86 8.709 8.707 16.369 13.283 22.227 13.283 13.598 0 28.789-26.306 41.002-47.434 9.309-16.134 18.094-31.378 28.762-41.576 8.734-8.341 19.586-12.734 31.432-12.734 25.572 0 51.146 21.128 66.26 36.32l13.857-13.857z" />
<glyph unicode="&#xe647;" glyph-name="home2-small" d="M949.663 407.641l-257.008 219.552c-1.325 1.171-2.962 1.676-4.445 2.534l-142.183 142.225c-2.807 4.677-6.841 8.613-11.907 11.342-13.154 7.056-29.486 3.664-38.783-7.991-19.488-24.396-70.565-74.833-103.852-74.833-6.432 0-11.302 2.026-16.254 6.782-14.011 13.408-29.562 40.301-44.568 66.337-33.656 58.309-71.853 124.412-135.578 124.412-29.738 0-58.835-14.617-88.925-44.667-31.939-32-46.068-64.426-41.958-96.466 7.271-56.945 69.046-93.153 123.535-125.152 26.095-15.279 53.085-31.104 66.611-45.29 4.988-5.185 6.896-10.485 6.47-17.737-2.165-32.972-49.013-82.511-78.070-105.974-6.82-5.535-11.011-13.684-11.459-22.451-0.488-8.729 2.787-17.306 8.984-23.502l151.228-151.188c0-0.039 0.078-0.039 0.117-0.080l219.319-256.657c5.612-6.548 13.68-10.443 22.295-10.794 0.392 0 0.778-0.041 1.207-0.041 8.187 0 16.096 3.275 21.867 9.083l355.147 355.15c6.082 6.081 9.356 14.458 9.045 23.074-0.35 8.61-4.286 16.719-10.835 22.332zM353.328 331.169l-31.493 31.491 272.13 272.134c0.312 0.312 0.392 0.739 0.664 1.052l31.688-31.687-272.989-272.99zM322.518 564.676c1.599 24.516-6.51 46.85-23.427 64.544-19.565 20.384-48.935 37.612-80.037 55.854-40.146 23.58-90.073 52.852-93.504 79.628-1.908 15.007 12.22 32.701 24.341 44.861 17.402 17.384 33.014 26.581 45.193 26.581 28.003 0 57.938-51.837 82.005-93.503 17.968-31.143 34.962-60.567 55.366-80.058 16.371-15.67 36.793-23.97 59.029-23.97 49.812 0 99.974 42.444 128.64 71.757l31.123-31.144c-0.271-0.273-0.722-0.39-1.030-0.702l-272.134-272.13-30.966 30.985c29.135 28.258 72.202 77.991 75.401 127.297zM643.542 141.785l-144.618 147.794c-11.928 12.202-31.532 12.356-43.75 0.434-12.201-11.928-12.396-31.534-0.471-43.695l145.071-148.305-23.541-23.541-179.33 209.848 277.315 277.275 209.848-179.289-240.524-240.521zM194.362 788.596c-13.134 0-23.794-10.642-23.794-23.777s10.66-23.775 23.794-23.775c13.117 0 23.776 10.64 23.776 23.775s-10.659 23.777-23.776 23.777z" />
<glyph unicode="&#xe648;" glyph-name="lending-large" d="M554.703 503.988c5.508-4.186 13.312-3.179 17.514 2.297s3.163 13.312-2.312 17.53c-13.848 10.605-29.898 16.396-45.649 17.812v32.133c0 6.892-5.586 12.494-12.479 12.494-6.908 0-12.494-5.602-12.494-12.494v-33.989c-9.945-2.486-19.197-6.86-26.751-13.69-15.374-13.973-21.369-32.761-16.066-50.292 5.964-19.701 24.391-34.146 49.741-39.308 0.96-0.378 1.967-0.692 3.021-0.85 17.813-2.675 30.984-11.361 34.414-22.659 2.519-8.309-0.66-17.058-8.938-24.548-15.626-14.1-44.359-12.557-65.413 3.588-5.492 4.186-13.312 3.179-17.515-2.298-4.186-5.476-3.146-13.312 2.313-17.529 13.8-10.543 29.772-16.302 45.461-17.75v-32.195c0-6.892 5.586-12.494 12.479-12.494 6.907 0 12.494 5.603 12.494 12.494v33.895c10.023 2.486 19.354 6.893 26.955 13.785 15.374 13.973 21.369 32.762 16.066 50.291-5.964 19.701-24.406 34.146-49.757 39.276-0.944 0.409-1.951 0.692-3.021 0.85-17.797 2.707-30.983 11.393-34.397 22.69-2.519 8.309 0.66 17.026 8.938 24.548 15.608 14.131 44.358 12.557 65.396-3.587zM266.677 448c0 135.264 110.056 245.319 245.319 245.319 84.706 0 162.298-42.801 208.058-115.216l7.915-10.826h-84.201c-6.893 0-12.479-5.602-12.479-12.494s5.586-12.494 12.479-12.494h113.895c3.305 0 6.483 1.322 8.828 3.65 2.344 2.36 3.65 5.539 3.65 8.844l-0.016 113.863c0 6.892-5.603 12.494-12.494 12.494-6.893 0-12.479-5.602-12.479-12.494l0.016-82.612-4.469 6.105c-49.898 78.993-135.39 126.168-228.703 126.168-149.048 0-270.292-121.259-270.292-270.308 0-6.892 5.586-12.494 12.479-12.494 6.908 0.001 12.494 5.603 12.494 12.495zM769.811 460.494c-6.893 0-12.479-5.602-12.479-12.494 0-135.295-110.056-245.319-245.336-245.319-84.689 0-162.282 42.801-208.041 115.186l-7.915 10.857h83.493c6.893 0 12.479 5.602 12.479 12.494s-5.586 12.494-12.479 12.494h-113.879c-3.32 0-6.499-1.322-8.828-3.65-2.345-2.36-3.666-5.539-3.666-8.844l0.031-113.895c0-6.893 5.586-12.494 12.479-12.494 6.908 0 12.494 5.602 12.494 12.494l-0.016 83.588 5.161-7.081c49.882-78.993 135.374-126.138 228.687-126.138 149.049 0 270.309 121.26 270.309 270.308 0 6.893-5.587 12.494-12.494 12.494zM512.013 960.008c-282.33 0-512.017-229.694-512.017-512.008s229.687-512.008 512.017-512.008c282.313 0 511.991 229.694 511.991 512.008s-229.678 512.008-511.991 512.008zM512.013-39.020c-268.554 0-487.044 218.475-487.044 487.020s218.49 487.020 487.044 487.020c268.529 0 487.004-218.474 487.004-487.020s-218.475-487.020-487.004-487.020z" />
<glyph unicode="&#xe649;" glyph-name="lending-medium" d="M586.744 545.947c7.146-5.427 17.34-4.156 22.793 3.018 5.479 7.147 4.104 17.339-3.018 22.819-23.852 18.266-51.701 27.98-78.65 29.516v58.292c0 8.975-7.279 16.254-16.266 16.254s-16.268-7.279-16.268-16.254v-60.886c-17.379-3.759-33.526-11.065-46.551-22.819-24.831-22.607-34.189-51.674-25.679-79.761 9.557-31.555 39.431-54.718 80.621-62.924 1.351-0.609 2.807-1.059 4.342-1.297 31.767-4.766 55.38-20.648 61.679-41.43 4.818-15.856-1.006-32.27-16.359-46.22-27.928-25.202-78.94-22.687-116.133 5.823-7.121 5.4-17.325 4.104-22.792-3.018-5.467-7.147-4.116-17.339 3.018-22.819 23.746-18.186 51.449-27.716 78.305-29.305v-58.503c0-8.975 7.28-16.254 16.268-16.254s16.267 7.279 16.267 16.254v60.7c17.551 3.732 33.777 11.172 46.908 23.005 24.805 22.58 34.176 51.646 25.652 79.761-9.557 31.555-39.443 54.718-80.609 62.897-1.336 0.608-2.791 1.059-4.314 1.297-31.78 4.792-55.419 20.675-61.719 41.456-4.792 15.83 1.046 32.27 16.399 46.22 27.914 25.256 78.938 22.662 116.106-5.822zM94.547 448c0 230.176 187.264 417.466 417.453 417.466 144.102 0 276.145-72.852 353.815-195.762l18.82-25.811h-150.971c-8.973 0-16.254-7.279-16.254-16.254s7.281-16.254 16.254-16.254h191.606c4.314 0 8.471 1.694 11.49 4.766 3.070 3.044 4.764 7.174 4.764 11.488l-0.025 191.579c0 8.975-7.281 16.254-16.281 16.254-8.975 0-16.254-7.279-16.254-16.254l0.053-153.538-16.307 22.289c-83.044 131.514-225.384 210.005-380.71 210.005-248.124 0-449.987-201.851-449.987-449.974 0-8.975 7.279-16.254 16.267-16.254s16.267 7.279 16.267 16.254zM945.707 464.254c-8.975 0-16.254-7.28-16.254-16.254 0-230.176-187.264-417.466-417.454-417.466-144.101 0-276.144 72.852-353.826 195.762l-18.835 25.837h149.806c8.987 0 16.268 7.279 16.268 16.254s-7.28 16.254-16.268 16.254h-191.592c-4.315 0-8.458-1.694-11.503-4.766-3.044-3.044-4.765-7.174-4.765-11.488l0.053-191.605c0-8.975 7.293-16.254 16.268-16.254 8.987 0 16.267 7.279 16.267 16.254l-0.053 155.126 17.458-23.878c83.070-131.514 225.397-210.004 380.723-210.004 248.137 0 449.987 201.85 449.987 449.974-0.001 8.974-7.28 16.254-16.28 16.254z" />
<glyph unicode="&#xe64a;" glyph-name="lending-small" d="M575.487 531.26c13.271-10.182 32.239-7.627 42.459 5.604 10.143 13.271 7.625 32.26-5.645 42.402-21.544 16.586-46.233 26.386-70.942 30.085 0.077 0.877 0.516 1.603 0.516 2.439v40.991c0 16.7-13.555 30.237-30.258 30.237-16.72 0-30.273-13.538-30.273-30.237v-40.991c0-2.249 0.818-4.231 1.296-6.329-15.348-4.729-29.648-12.202-41.582-22.992-27.931-25.358-38.78-59.828-28.98-92.124 10.734-35.424 43.146-61.392 87.662-70.618 1.983-0.764 4.101-1.298 6.292-1.642 24.747-3.735 43.564-15.48 47.988-29.971 3.928-13.041-5.663-24.289-11.725-29.741-22.021-19.904-63.165-17.082-93.784 6.367-13.271 10.183-32.296 7.665-42.438-5.644-10.162-13.271-7.665-32.259 5.624-42.4 21.429-16.436 46.024-26.388 70.58-30.086-0.077-0.839-0.458-1.562-0.458-2.402v-40.951c0-16.701 13.5-30.276 30.219-30.276 16.758 0 30.258 13.575 30.258 30.276v40.951c0 2.213-0.82 4.232-1.239 6.331 15.499 4.689 29.895 12.087 41.885 22.954 27.989 25.434 38.78 59.864 28.98 92.161-10.753 35.424-43.146 61.353-87.663 70.618-1.982 0.762-4.1 1.296-6.291 1.64-24.747 3.698-43.564 15.52-47.988 29.972-3.946 13.040 5.701 24.289 11.726 29.78 21.981 19.868 63.162 17.046 93.781-6.404zM122.513 447.98c0 214.754 174.734 389.508 389.488 389.508 134.43 0 257.667-67.988 330.688-183.485l1.373-1.907h-117.52c-16.7 0-30.275-13.536-30.275-30.276 0-16.7 13.575-30.236 30.275-30.236h185.392c8.045 0 15.748 3.202 21.43 8.846 5.683 5.72 8.847 13.385 8.847 21.391l-0.037 185.431c0 16.739-13.538 30.275-30.276 30.275-16.701 0-30.238-13.574-30.238-30.275v-103.944c-84.233 121.901-220.664 194.692-369.66 194.692-248.137 0-450-201.863-450-450.020 0-16.701 13.536-30.236 30.255-30.236 16.703 0.002 30.258 13.536 30.258 30.236zM931.762 478.257c-16.74 0-30.275-13.535-30.275-30.276 0-214.751-174.716-389.467-389.485-389.467-134.433 0-257.669 67.987-330.69 183.486l-1.39 1.905h116.431c16.701 0 30.219 13.536 30.219 30.274 0 16.703-13.519 30.238-30.219 30.238h-185.43c-8.046 0-15.729-3.203-21.393-8.847-5.661-5.72-8.865-13.385-8.865-21.393l0.038-185.429c0-16.74 13.535-30.238 30.257-30.238 16.72 0 30.257 13.537 30.257 30.238v105.473c84.152-122.857 221.118-196.221 370.782-196.221 248.135 0 449.999 201.864 449.999 449.98 0.002 16.742-13.535 30.277-30.236 30.277z" />
<glyph unicode="&#xe64b;" glyph-name="merchant-large" d="M785.238 718.308h-515.627c-4.721 0-9.048-2.675-11.172-6.908l-63.084-126.152c-0.047-0.11-0.016-0.236-0.063-0.331-0.755-1.621-1.243-3.367-1.243-5.256 0-0.11 0.047-0.204 0.063-0.314 0-0.409 0.189-0.787 0.236-1.196 0.205-1.558 0.614-3.005 1.338-4.327 0.126-0.235 0.079-0.503 0.22-0.724 0.189-0.299 0.535-0.425 0.74-0.708 0.85-1.148 1.841-2.093 3.021-2.896 0.457-0.299 0.834-0.646 1.322-0.881 1.684-0.85 3.525-1.448 5.539-1.448h50.606v-376.979c0-6.893 5.586-12.494 12.479-12.494h515.627c6.908 0 12.494 5.602 12.494 12.494v515.625c-0.002 6.893-5.588 12.495-12.496 12.495zM633.735 693.319l-59.34-96.129c-0.976-1.59-1.479-3.305-1.699-5.036h-98.222l62.438 101.165h96.823zM507.566 693.319l-59.339-96.129c-0.976-1.59-1.479-3.305-1.7-5.036h-98.206l62.439 101.165h96.806zM226.731 592.154l50.606 101.165h104.060l-59.323-96.129c-0.976-1.59-1.495-3.305-1.7-5.036h-93.643zM443.632 202.681h-95.705v227.348h95.705v-227.348zM772.76 202.681h-304.156v239.842c0 6.893-5.586 12.494-12.478 12.494h-120.692c-6.892 0-12.479-5.602-12.479-12.494v-239.843h-40.85v364.486h490.655v-364.485zM772.76 592.154h-172.117l62.439 101.165h109.678v-101.165zM532.916 287.401h186.5c6.908 0 12.494 5.602 12.494 12.494v186.515c0 6.893-5.586 12.494-12.494 12.494h-186.5c-6.907 0-12.494-5.602-12.494-12.494v-186.515c0-6.892 5.587-12.494 12.494-12.494zM545.395 473.916h161.543v-161.526h-161.543v161.526zM512.004 960.008c-282.322 0-512-229.694-512-512.008s229.678-512.008 512-512.008c282.313 0 511.992 229.693 511.992 512.008 0 282.313-229.679 512.008-511.992 512.008zM512.004-39.020c-268.546 0-487.028 218.474-487.028 487.020s218.482 487.020 487.028 487.020c268.545 0 487.035-218.475 487.035-487.020 0-268.546-218.49-487.020-487.035-487.020z" />
<glyph unicode="&#xe64c;" glyph-name="merchant-medium" d="M998.266 897.496h-866.518c-6.162 0-11.768-3.464-14.545-8.964l-106.014-212.002c-0.079-0.159-0.026-0.344-0.106-0.503-0.951-2.062-1.586-4.337-1.586-6.77 0-0.132 0.079-0.238 0.079-0.37 0-0.608 0.265-1.164 0.344-1.799 0.291-1.903 0.793-3.702 1.666-5.368 0.185-0.316 0.132-0.688 0.317-1.005 0.265-0.423 0.74-0.607 1.031-0.978 1.084-1.429 2.327-2.618 3.808-3.649 0.608-0.424 1.138-0.873 1.799-1.217 2.194-1.084 4.574-1.851 7.192-1.851h89.777v-638.28c0-8.965 7.272-16.236 16.237-16.236h866.518c8.965 0 16.237 7.271 16.237 16.236v866.519c0.001 8.965-7.272 16.237-16.236 16.237zM982.029 685.494h-302.493l110.827 179.529h191.666v-179.529zM540.123 865.023l-110.801-179.529h-173.816l110.827 179.529h173.79zM578.335 865.023h173.816l-110.827-179.529h-173.79l110.801 179.529zM52.019 685.494l89.777 179.529h186.325l-110.801-179.529h-165.301zM428.926 30.977h-170.326v391.584h170.326v-391.584zM461.399 30.977v407.82c0 8.965-7.272 16.237-16.237 16.237h-202.799c-8.965 0-16.237-7.271-16.237-16.237v-407.82h-78.142v622.044h834.045v-622.044h-520.63zM887.65 528.787h-313.415c-8.964 0-16.236-7.272-16.236-16.236v-313.441c0-8.965 7.272-16.238 16.236-16.238h313.415c8.965 0 16.237 7.273 16.237 16.238v313.44c0.001 8.964-7.272 16.237-16.237 16.237zM871.414 215.346h-280.941v280.967h280.941v-280.967z" />
<glyph unicode="&#xe64d;" glyph-name="merchant-small" d="M931.762 898h-839.506c-16.721 0-30.276-13.537-30.276-30.277v-839.486c0-16.702 13.555-30.237 30.276-30.237h839.506c16.701 0 30.238 13.535 30.238 30.236v839.487c0 16.74-13.537 30.277-30.238 30.277zM901.486 692.588h-153.82v144.898h153.82v-144.898zM336.826 837.486h144.896v-144.898h-144.896v144.898zM542.256 837.486h144.896v-144.898h-144.896v144.898zM276.352 692.588h-153.801v144.898h153.801v-144.898zM365.654 58.512h-135.957v350.308h135.957v-350.308zM426.166 58.512v380.584c0 16.701-13.555 30.199-30.256 30.199h-196.488c-16.701 0-30.256-13.498-30.256-30.199v-380.584h-46.652v573.564h778.973v-573.564h-475.321zM824.537 540.791h-303.635c-16.701 0-30.219-13.576-30.219-30.277v-303.635c0-16.738 13.518-30.236 30.219-30.236h303.635c16.74 0 30.277 13.498 30.277 30.236v303.635c0 16.701-13.537 30.277-30.277 30.277zM794.301 237.154h-243.141v243.123h243.141v-243.123z" />
<glyph unicode="&#xe64e;" glyph-name="mortgage2-large" d="M765.069 530.757l-80.745 57.187v109.347c0 6.892-5.588 12.495-12.48 12.495h-68.646c-6.902 0-12.48-5.604-12.48-12.495v-43.054l-72.504 51.343c-6.059 4.441-13.613 6.912-21.545 6.912-7.764 0-15.24-2.378-21.602-6.863l-248.373-176.004c-5.888-4.167-9.671-10.667-10.407-17.813-0.74-7.172 1.657-14.299 6.549-19.573l17.084-18.363c4.887-5.255 11.573-7.98 18.309-7.98 5.010 0 10.054 1.529 14.422 4.599l13.436 9.52v-251.783c0-6.883 5.588-12.48 12.49-12.48h395.886c6.901 0 12.489 5.598 12.489 12.48v252.016l12.168-8.623c4.372-3.103 9.411-4.593 14.411-4.593 6.735 0 13.44 2.721 18.313 7.976l17.078 18.362c4.922 5.274 7.295 12.402 6.559 19.559-0.754 7.176-4.53 13.676-10.412 17.828zM615.688 684.781h43.666v-78.696l-43.666 30.951v47.745zM606.531 240.739h-56.647v108.010h56.647v-108.010zM681.981 240.739h-50.479v120.481c0 6.911-5.589 12.51-12.48 12.51h-81.637c-6.893 0-12.486-5.599-12.486-12.51v-120.48h-213.837v256.958l185.626 131.456 185.294-131.235v-257.18zM733.56 492.003l-31.265 22.137c-0.235 0.206-0.363 0.52-0.617 0.711l-197.819 140.033c-0.304 0.201-0.662 0.279-0.965 0.485l-6.207 4.373-5.95-4.216c-0.432-0.235-0.911-0.363-1.313-0.643l-198.063-140.268c-0.246-0.172-0.363-0.49-0.584-0.677l-32.563-23.054-17.083 18.363 248.307 175.954c2.172 1.53 4.721 2.3 7.23 2.3 2.52 0 5.016-0.77 7.108-2.3l246.863-174.821-17.079-18.377zM464.301 472.365h-84.592c-6.893 0-12.486-5.603-12.486-12.495v-84.592c0-6.893 5.594-12.5 12.486-12.5h84.592c6.902 0 12.485 5.607 12.485 12.5v84.592c0 6.893-5.583 12.495-12.485 12.495zM451.816 387.769h-59.623v59.606h59.623v-59.606zM512.002 959.995c-282.317 0-511.998-229.694-511.998-512.007 0-282.308 229.681-511.983 511.998-511.983 282.332 0 511.979 229.676 511.979 511.983-0.001 282.313-229.647 512.007-511.979 512.007zM512.002-39.015c-268.558 0-487.037 218.46-487.037 487.003 0 268.548 218.479 487.017 487.037 487.017 268.548 0 487.018-218.469 487.018-487.017 0-268.543-218.47-487.003-487.018-487.003z" />
<glyph unicode="&#xe64f;" glyph-name="mortgage2-medium" d="M977.718 559.028l-140.627 99.593v200.096c0 9.342-7.579 16.921-16.948 16.921h-120.205c-9.343 0-16.92-7.579-16.92-16.921v-90.967l-137.622 97.443c-8.985 6.614-20.229 10.252-32.022 10.252-11.562 0-22.68-3.529-32.161-10.224l-434.928-308.177c-7.963-5.648-13.104-14.468-14.11-24.167-0.992-9.729 2.247-19.373 8.888-26.538l29.927-32.162c6.614-7.11 15.667-10.8 24.802-10.8 6.808 0 13.641 2.038 19.552 6.227l34.185 24.196v-456.519c0-9.343 7.578-16.919 16.933-16.919h693.306c9.369 0 16.948 7.576 16.948 16.919v456.933l31.938-22.624c5.926-4.19 12.759-6.23 19.566-6.23 9.147 0 18.188 3.693 24.802 10.803l29.927 32.159c6.641 7.166 9.866 16.812 8.874 26.541-0.988 9.698-6.114 18.516-14.105 24.165zM716.885 841.796h86.338v-152.336l-86.338 61.204v91.132zM601.64 54.202v199.104h109.073v-199.104h-109.073zM842.851 54.202h-98.271v216.025c0 9.342-7.578 16.919-16.921 16.919h-142.968c-9.342 0-16.92-7.577-16.92-16.919v-216.024h-384.373v457.978l329.919 233.661 329.533-233.247v-458.393zM928.224 499.229l-414.796 293.764-417.65-295.748-29.913 32.161 434.857 308.147c3.804 2.674 8.255 4.023 12.65 4.023 4.409 0 8.79-1.349 12.456-4.023l432.322-306.165-29.926-32.159zM456.7 459.849h-148.15c-9.355 0-16.934-7.579-16.934-16.921v-148.148c0-9.343 7.579-16.922 16.934-16.922h148.148c9.356 0 16.935 7.579 16.935 16.922v148.148c0.001 9.342-7.577 16.921-16.933 16.921zM439.766 311.7h-114.282v114.309h114.282v-114.309z" />
<glyph unicode="&#xe650;" glyph-name="mortgage2-small" d="M1008.893 538.866l-96.881 68.659c-0.181 0.089-0.225 0.316-0.36 0.407l-378.914 268.166c-6.195 4.389-13.479 6.558-20.692 6.558-7.282 0-14.542-2.169-20.76-6.558l-476.11-337.187c-16.216-11.487-20.014-33.876-8.572-50.068s33.945-19.947 50.023-8.549l40.21 28.494v-459.532c0-19.812 16.056-35.912 35.89-35.912h758.206c19.812 0 35.867 16.101 35.867 35.912v459.85l40.57-28.767c6.289-4.478 13.568-6.649 20.716-6.649 11.307 0 22.299 5.293 29.311 15.153 11.488 16.147 7.69 38.581-8.504 50.023zM469.666 268.076h84.535v-182.909h-84.535v182.909zM855.022 85.167h-229.042v218.821c0 19.812-16.103 35.914-35.912 35.914h-156.292c-19.833 0-35.89-16.103-35.89-35.914v-218.821h-229.27v474.416l343.43 243.245 342.976-242.93v-474.731z" />
</font>
</defs>
</svg>
